<?xml version="1.0" standalone="no"?>
<!DOCTYPE svg PUBLIC "-//W3C//DTD SVG 1.1//EN" "http://www.w3.org/Graphics/SVG/1.1/DTD/svg11.dtd" >
<svg xmlns="http://www.w3.org/2000/svg">
<metadata></metadata>
<defs>
<font id="chonburiregular" horiz-adv-x="0" >
<font-face units-per-em="2048" ascent="1536" descent="-512" />
<missing-glyph horiz-adv-x="593" />
<glyph unicode="fi" horiz-adv-x="1585" d="M41 942v53h133v47q0 229 170 341t485 112q133 0 265.5 -20.5t224.5 -53.5l-82 -303h-63q-55 158 -135.5 243t-217.5 85q-104 0 -156.5 -49t-68.5 -139.5t-16 -245.5v-17h831v-897q0 -23 9.5 -31t39.5 -14l72 -16v-37h-651v37l71 16q31 6 40 14.5t9 30.5v844h-421v-842 q0 -23 9 -31t40 -14l76 -18v-37h-652v37l72 16q31 6 40 14.5t9 30.5v844h-133z" />
<glyph unicode="fl" horiz-adv-x="1601" d="M41 942v53h133v47q0 227 166 340t463 113q158 0 336 -41l254 41h39v-1397q0 -23 9 -31t40 -14l71 -16v-37h-651v37l72 16q31 6 40 14.5t9 30.5v1295q-82 53 -201 53q-104 0 -156.5 -49t-68.5 -139.5t-16 -245.5v-17h237v-53h-237v-842q0 -23 9 -31t40 -14l76 -18v-37 h-652v37l72 16q31 6 40 14.5t9 30.5v844h-133z" />
<glyph unicode="&#xe24;&#xe45;" horiz-adv-x="2433" d="M111 952v33q336 158 727 158q346 0 483 -119q238 119 494 119q227 0 335.5 -91t108.5 -282v-1139q0 -23 9 -31t40 -14l68 -12v-41h-422q-109 0 -109 117v1161q0 133 -49 182t-158 49q-84 0 -148.5 -14t-127.5 -45q61 -80 61 -209v-1143q0 -23 9.5 -31t40.5 -14l67 -12 v-41h-422q-109 0 -108 117v1184q0 96 -18.5 149t-65.5 75.5t-135 22.5q-111 0 -203 -20v-782q0 -117 12 -162t66 -45q31 0 61.5 19.5t65.5 60.5l38 -35q-49 -68 -118.5 -102.5t-180.5 -34.5q-195 0 -285.5 105t-90.5 329q0 197 54 307t165 156v26z" />
<glyph unicode="&#xe26;&#xe45;" horiz-adv-x="2412" d="M23 104l36 37q29 -37 55.5 -54t59.5 -17q37 0 53.5 23.5t16.5 96.5v449q0 88 53 150.5t147 87.5v26l-282 49v33q338 158 721 158q311 0 446 -105q217 104 465 105q227 0 335.5 -91t108.5 -282v-1139q0 -23 9.5 -31t40.5 -14l67 -12v-41h-422q-108 0 -108 117v1161 q0 133 -49.5 182t-157.5 49q-131 0 -244 -45q70 -88 70 -223v-1143q0 -23 9 -31t40 -14l68 -12v-41h-422q-109 0 -109 117v1184q0 96 -16.5 149t-58.5 75.5t-119 22.5q-86 0 -179 -18v-795q0 -147 -78.5 -217.5t-254.5 -70.5q-119 0 -186.5 30.5t-114.5 93.5z" />
<glyph unicode=" "  horiz-adv-x="593" />
<glyph unicode="&#x09;" horiz-adv-x="593" />
<glyph unicode="&#xa0;" horiz-adv-x="593" />
<glyph unicode="!" horiz-adv-x="581" d="M98 1382q23 35 73 53.5t120 18.5t120 -18.5t72 -53.5l-159 -929h-66zM119 152q0 70 50 118.5t122 48.5t122 -49t50 -118q0 -70 -50.5 -119t-121.5 -49q-72 0 -122 49t-50 119z" />
<glyph unicode="&#x22;" horiz-adv-x="942" d="M106 1432q61 23 150 22q88 0 150 -22l-125 -549h-50zM537 1432q61 23 149 22q88 0 150 -22l-125 -549h-49z" />
<glyph unicode="#" horiz-adv-x="1327" d="M57 451v49l320 4l61 426l-311 4v49l319 4l64 447h65l-65 -447l420 6l63 441h66l-64 -441l275 4v-77l-285 2l-59 -412l274 4v-78l-285 2l-61 -438h-66l62 440l-416 4l-63 -444h-66l64 446zM442 504l418 6l60 414l-418 4z" />
<glyph unicode="$" horiz-adv-x="1392" d="M115 1063q0 188 127 286.5t403 106.5v182h62v-180q131 -2 254.5 -28.5t207.5 -65.5l-28 -313h-60q-43 121 -86 192.5t-111.5 113.5t-176.5 46v-475l92 -43q199 -96 287 -150.5t140 -137.5t52 -216q0 -193 -138.5 -294t-432.5 -110v-182h-62v180q-131 2 -282.5 30 t-235.5 69l35 360h57q31 -160 88.5 -248t139 -121.5t198.5 -33.5v504l-61 28q-178 78 -269.5 133.5t-145.5 142.5t-54 224zM406 1227q0 -90 51 -144.5t188 -124.5v443q-240 -10 -239 -174zM707 33q104 10 163.5 61t59.5 135q0 93 -51.5 154t-171.5 123v-473z" />
<glyph unicode="%" horiz-adv-x="1675" d="M82 1110q0 156 91 248t253 92t253 -92t91 -248t-91 -248t-253 -92t-253 92t-91 248zM313 1110q0 -158 23.5 -230.5t89.5 -72.5t89.5 72.5t23.5 230.5t-23.5 230.5t-89.5 72.5t-89.5 -72.5t-23.5 -230.5zM397 0l820 1434h61l-819 -1434h-62zM905 324q0 156 91 248t253 92 t253 -92.5t91 -247.5q0 -156 -91 -248t-253 -92t-253 92t-91 248zM1137 324q0 -158 23.5 -231t88.5 -73q66 0 89.5 73t23.5 231t-23.5 230.5t-89.5 72.5t-89 -73t-23 -230z" />
<glyph unicode="&#x26;" horiz-adv-x="1708" d="M102 367q0 299 340 426q-92 133 -92 256q0 178 125 293.5t367 115.5q236 0 383 -82l-51 -280h-60q-45 145 -67.5 197.5t-66.5 81t-134 28.5q-180 0 -180 -150q0 -70 45 -156.5t112 -166.5l396 -471l223 311h-101v45h301v-41l-79 -6q-31 -2 -47.5 -11t-34.5 -34l-228 -305 l269 -320q20 -23 37.5 -35t39.5 -14l76 -8v-41h-573l-101 119q-94 -84 -185 -114t-218 -30q-240 0 -368 96.5t-128 295.5zM416 477q0 -201 81 -303t210 -102q81 0 144.5 21.5t117.5 64.5l-480 573l-14 17q-31 -43 -45 -108t-14 -163z" />
<glyph unicode="'" horiz-adv-x="512" d="M106 1432q61 23 150 22q88 0 150 -22l-125 -549h-50z" />
<glyph unicode="(" horiz-adv-x="798" d="M135 696q0 324 140.5 542t426.5 388l31 -31q-129 -86 -197.5 -201.5t-94 -278.5t-25.5 -419t25.5 -418.5t94 -278.5t197.5 -202l-31 -30q-287 170 -427 388t-140 541z" />
<glyph unicode=")" horiz-adv-x="798" d="M66 -203q129 86 197.5 202t94 278.5t25.5 418.5t-25.5 419t-94 278.5t-197.5 201.5l30 31q287 -170 427.5 -388t140.5 -542q0 -323 -140.5 -541t-427.5 -388z" />
<glyph unicode="*" horiz-adv-x="1130" d="M115 1114q0 76 32 131l400 -139l-70 416q35 14 88 14t88 -14l-71 -416l401 139q33 -55 33 -131q0 -14 -4 -43h-420l313 -278q-16 -35 -55 -67t-78 -44l-207 362l-207 -362q-39 12 -77.5 44t-55.5 67l312 278h-418q-4 29 -4 43z" />
<glyph unicode="+" horiz-adv-x="1167" d="M152 643v57h401v404h61v-404h402v-57h-402v-403h-61v403h-401z" />
<glyph unicode="," horiz-adv-x="548" d="M98 156q0 70 46 116.5t126 46.5q82 0 131.5 -46t49.5 -134q0 -119 -72 -240.5t-176 -203.5l-41 43q133 141 133 266q-14 -2 -39 -2q-78 0 -118 44t-40 110z" />
<glyph unicode="-" horiz-adv-x="638" d="M82 541v57h475v-57h-475z" />
<glyph unicode="." horiz-adv-x="548" d="M102 152q0 70 50.5 118.5t121.5 48.5q72 0 122 -49t50 -118q0 -70 -50 -119t-122 -49q-71 0 -121.5 49t-50.5 119z" />
<glyph unicode="/" horiz-adv-x="614" d="M61 -25l431 1483h61l-430 -1483h-62z" />
<glyph unicode="0" horiz-adv-x="1593" d="M106 717q0 240 90.5 406.5t247 250.5t353.5 84q196 0 353 -84t247 -251t90 -406q0 -240 -90 -407t-247 -251t-353 -84q-197 0 -353.5 84t-247 251t-90.5 407zM559 717q0 -344 51.5 -513t186.5 -169t186 169t51 513t-51 513t-186 169t-186.5 -169t-51.5 -513z" />
<glyph unicode="1" horiz-adv-x="1052" d="M123 0v41l162 20q31 6 40 14.5t9 33.5v1155h-205v45q311 37 582 149l41 -20v-1332q0 -23 9 -31.5t38 -13.5l143 -20v-41h-819z" />
<glyph unicode="2" horiz-adv-x="1351" d="M66 41q373 254 534.5 520t161.5 506q0 137 -58.5 213t-175.5 76q-111 0 -205 -35t-200 -104l-25 38q281 203 619 203q252 0 363.5 -106.5t111.5 -298.5q0 -242 -197.5 -424.5t-480.5 -329.5h616q23 0 31 9t15 40l16 76h41v-424h-1149z" />
<glyph unicode="3" horiz-adv-x="1290" d="M66 63l28 340h47q35 -117 74 -192.5t107.5 -124.5t179.5 -49q137 0 202.5 82t65.5 264q0 160 -73.5 253t-221.5 93h-84v62h86q129 0 188.5 71.5t59.5 218.5q0 143 -67.5 211t-204.5 68q-180 0 -361 -107l-24 39q121 80 260 123t321 43q223 0 358.5 -91t135.5 -259 q0 -121 -91 -213t-251 -133q186 -27 290.5 -123t104.5 -248q0 -225 -164 -318t-493 -93q-143 0 -271.5 22.5t-201.5 60.5z" />
<glyph unicode="4" horiz-adv-x="1388" d="M41 373l950 1061h150v-1051h190v-57h-190v-220q0 -23 9 -31.5t38 -13.5l143 -20v-41h-819v41l162 20q31 6 40 14.5t9 33.5v217h-670zM131 383h592v659z" />
<glyph unicode="5" horiz-adv-x="1298" d="M66 63l28 340h47q35 -117 73 -192.5t105.5 -124.5t174.5 -49q141 0 210.5 101.5t69.5 279.5q0 186 -72.5 289.5t-259.5 103.5q-121 0 -239 -33h-58l50 656h886v-299h-843l-23 -299q86 23 155.5 30.5t166.5 7.5q362 0 512.5 -115.5t150.5 -322.5q0 -242 -170 -349 t-495 -107q-144 0 -270 22.5t-199 60.5z" />
<glyph unicode="6" horiz-adv-x="1437" d="M115 578q0 223 102 409.5t320.5 312t549.5 160.5l17 -47q-238 -53 -356.5 -186t-157.5 -369q119 49 258 49q162 0 277.5 -55t175 -154.5t59.5 -226.5q0 -154 -74 -265.5t-209 -171t-317 -59.5q-199 0 -344.5 77t-223 213t-77.5 313zM565 494q0 -213 40 -339t161 -126 q109 0 162 103.5t53 295.5q0 193 -51 296t-187 103q-85 1 -163 -36q-14 -123 -15 -297z" />
<glyph unicode="7" horiz-adv-x="1228" d="M74 1010v424h1071l22 -31q-206 -320 -321 -665t-174 -738h-418q47 270 243.5 572t436.5 563h-758q-23 0 -31 -9.5t-14 -40.5l-16 -75h-41z" />
<glyph unicode="8" horiz-adv-x="1396" d="M98 311q0 123 88 216.5t246 131.5q-150 78 -214 178.5t-64 221.5q0 193 144 296t388 103q229 0 377.5 -84t148.5 -241q0 -119 -96 -191t-252 -106l84 -39q188 -88 269 -184.5t81 -231.5q0 -203 -179 -304.5t-447 -101.5q-264 0 -419 84t-155 252zM410 342 q0 -147 73.5 -230t216.5 -83q127 0 197 56t70 165q0 90 -60.5 147.5t-206.5 128.5l-192 95q-98 -86 -98 -279zM453 1214q0 -84 30.5 -138t81.5 -88t146 -79l104 -51q131 111 131 301q0 123 -67.5 184.5t-184.5 61.5q-242 0 -241 -191z" />
<glyph unicode="9" horiz-adv-x="1437" d="M86 963q0 154 73.5 265t209 170.5t317.5 59.5q199 0 344.5 -76.5t223 -213t77.5 -312.5q0 -223 -102.5 -409.5t-320.5 -312.5t-550 -161l-16 47q238 54 356.5 187t157.5 368q-119 -49 -258 -49q-162 0 -277.5 55.5t-175 155t-59.5 226.5zM465 1006q0 -193 51 -296.5 t186 -103.5q86 0 164 37q14 123 15 297q0 213 -40 339t-161 126q-109 0 -162 -103.5t-53 -295.5z" />
<glyph unicode=":" horiz-adv-x="598" d="M127 152q0 70 50 118.5t122 48.5t122 -49t50 -118q0 -70 -50 -119t-122 -49t-122 49t-50 119zM127 852q0 70 50 119t122 49t122 -49t50 -119t-50 -119t-122 -49t-122 49t-50 119z" />
<glyph unicode=";" horiz-adv-x="598" d="M123 156q0 70 46 116.5t126 46.5q82 0 131 -46t49 -134q0 -119 -71.5 -240.5t-176.5 -203.5l-41 43q133 141 133 266q-13 -2 -38 -2q-78 0 -118 44t-40 110zM127 852q0 70 50 119t122 49t122 -49t50 -119t-50 -119t-122 -49t-122 49t-50 119z" />
<glyph unicode="&#x3c;" horiz-adv-x="1167" d="M176 549v41l754 454l33 -55l-711 -420l711 -419l-33 -56z" />
<glyph unicode="=" horiz-adv-x="1171" d="M152 459v57h864v-57h-864zM152 827v58h864v-58h-864z" />
<glyph unicode="&#x3e;" horiz-adv-x="1167" d="M205 150l710 419l-710 420l33 55l753 -454v-41l-753 -455z" />
<glyph unicode="?" horiz-adv-x="1159" d="M61 1272q125 90 254 138t324 48q211 0 322.5 -81t111.5 -240q0 -190 -132 -285.5t-339 -130.5l-27 -268h-57l-22 268q188 149 188 397q0 238 -233 238q-113 0 -192 -29t-173 -94zM375 152q0 70 50 118.5t122 48.5t122 -49t50 -118q0 -70 -50.5 -119t-121.5 -49 q-72 0 -122 49t-50 119z" />
<glyph unicode="@" horiz-adv-x="2148" d="M119 467q0 272 138 478t380 318.5t545 112.5q395 0 621.5 -186t226.5 -551q0 -180 -56.5 -316.5t-161 -211t-247.5 -74.5t-207 32.5t-84 100.5q-137 -133 -342 -133q-119 0 -185.5 54t-66.5 165q0 113 65.5 177.5t192.5 91t336 32.5v133q0 102 -38 144.5t-138 42.5 q-82 0 -151.5 -23t-145.5 -68l-25 37q86 61 207 98t274 37q205 0 293 -80.5t88 -232.5v-369q0 -79 15.5 -100.5t56.5 -21.5q57 0 116.5 56t98.5 162.5t39 250.5q0 219 -92 359t-243.5 203.5t-334.5 63.5q-256 0 -449.5 -101t-300 -284.5t-106.5 -421.5q0 -354 202 -521 t564 -167q145 0 288.5 48t252.5 135l33 -52q-125 -100 -292 -154.5t-366 -54.5q-264 0 -491.5 82t-368.5 259.5t-141 449.5zM1038 281q0 -70 21.5 -98.5t75.5 -28.5q39 0 69.5 18t69.5 57v279q-102 -8 -152.5 -33.5t-67 -70t-16.5 -123.5z" />
<glyph unicode="A" horiz-adv-x="1572" d="M37 0v41l76 8q25 2 35 12.5t22 36.5l567 1358h66l600 -1358q12 -27 22.5 -37t34.5 -12l76 -8v-41h-676v41l88 8q29 4 29 23q0 10 -6 24l-135 299h-476l-122 -299q-6 -14 -7 -24q0 -18 29 -23l88 -8v-41h-311zM385 457h424l-221 489z" />
<glyph unicode="B" horiz-adv-x="1515" d="M53 0v41l76 16q31 6 40 14.5t9 30.5v1229q0 23 -9 31t-40 14l-76 17v41h629q248 0 392.5 -33t209 -104.5t64.5 -194.5q0 -164 -98.5 -242t-313.5 -100q176 -14 282.5 -55t156.5 -120t50 -208q0 -143 -77.5 -225t-240.5 -117t-437 -35h-617zM596 61h92q315 0 316 316 q0 184 -66 266t-233 82h-109v-664zM596 786h100q127 0 188.5 78t61.5 238q0 137 -60.5 203.5t-189.5 66.5h-100v-586z" />
<glyph unicode="C" horiz-adv-x="1544" d="M115 737q0 371 220 546t576 175q143 0 282.5 -26.5t219.5 -65.5l-29 -352h-57q-57 174 -154.5 279.5t-259.5 105.5q-186 0 -267 -152.5t-81 -455.5q0 -358 104.5 -535.5t366.5 -177.5q113 0 204 37t173 102l41 -45q-90 -84 -234.5 -140.5t-318.5 -56.5q-344 0 -565 181.5 t-221 580.5z" />
<glyph unicode="D" horiz-adv-x="1675" d="M53 0v41l76 16q31 6 40 14.5t9 30.5v1229q0 23 -9 31t-40 14l-76 17v41h627q430 0 655.5 -162t225.5 -555t-225.5 -555t-655.5 -162h-627zM596 61h84q170 0 262 60.5t129 200t37 395.5t-37 395t-129 199.5t-262 60.5h-84v-1311z" />
<glyph unicode="E" horiz-adv-x="1474" d="M53 0v41l76 16q31 6 40 14.5t9 30.5v1229q0 23 -9 31t-40 14l-76 17v41h1262v-400h-51q-43 133 -81 201t-105.5 102.5t-190.5 34.5h-291v-608h528v-62h-528v-641h311q121 0 190.5 37t109.5 106.5t83 203.5h53v-408h-1290z" />
<glyph unicode="F" horiz-adv-x="1380" d="M53 0v41l76 16q31 6 40 14.5t9 30.5v1229q0 23 -9 31t-40 14l-76 17v41h1237v-400h-51q-43 133 -81 201t-105.5 102.5t-190.5 34.5h-266v-608h512v-62h-512v-598q0 -23 9 -30.5t40 -14.5l88 -18v-41h-680z" />
<glyph unicode="G" horiz-adv-x="1617" d="M115 737q0 371 223 546t588 175q152 0 294 -26.5t222 -65.5l-29 -352h-57q-57 174 -156.5 279.5t-271.5 105.5q-195 0 -279 -152.5t-84 -455.5q0 -263 47 -421.5t154.5 -232.5t290.5 -74h65v504h-202v62h559v-539q-45 -8 -107.5 -23.5t-95.5 -23.5q-135 -35 -216 -51.5 t-151 -16.5q-219 0 -397 75t-287.5 245t-109.5 442z" />
<glyph unicode="H" horiz-adv-x="1728" d="M53 0v41l76 16q31 6 40 14.5t9 30.5v1229q0 23 -9 31t-40 14l-76 17v41h664v-41l-74 -17q-29 -4 -38 -12t-9 -31v-569h537v569q0 23 -9.5 31t-38.5 12l-73 17v41h663v-41l-76 -17q-31 -6 -40 -14t-9 -31v-1229q0 -23 9.5 -31t39.5 -14l76 -16v-41h-663v41l73 16 q29 6 38.5 13.5t9.5 29.5v602h-537v-602q0 -23 9 -30t38 -13l74 -16v-41h-664z" />
<glyph unicode="I" horiz-adv-x="790" d="M61 0v41l76 16q31 6 40 14.5t9 30.5v1229q0 23 -9 31t-40 14l-76 17v41h668v-41l-76 -17q-31 -6 -40 -14t-9 -31v-1229q0 -23 9.5 -31t39.5 -14l76 -16v-41h-668z" />
<glyph unicode="J" horiz-adv-x="1273" d="M106 61l48 361h53q27 -160 64.5 -245t88 -115.5t125.5 -30.5q74 0 117 32.5t63.5 117.5t20.5 241v907q0 23 -9 31t-40 14l-88 19v41h680v-41l-76 -17q-31 -6 -40 -14t-9 -31v-868q0 -258 -165 -373t-437 -115q-86 0 -197.5 24t-198.5 62z" />
<glyph unicode="K" horiz-adv-x="1613" d="M53 0v41l76 16q31 6 40 14.5t9 30.5v1229q0 23 -9 31t-40 14l-76 17v41h664v-41l-74 -17q-29 -4 -38 -12t-9 -31v-581l676 585q16 14 16 31q0 14 -22 18l-88 9v39h366v-41l-86 -7q-35 -2 -54.5 -13t-49.5 -38l-480 -415q35 -15 61 -39.5t54 -65.5l449 -715 q16 -25 28.5 -34t34.5 -11l88 -14v-41h-432q-55 0 -86 17.5t-53 52.5l-383 643l-39 -35v-578q0 -23 9 -30t38 -13l74 -16v-41h-664z" />
<glyph unicode="L" horiz-adv-x="1368" d="M53 0v41l76 16q31 6 40 14.5t9 30.5v1229q0 23 -9 31t-40 14l-76 17v41h680v-41l-88 -19q-31 -6 -40 -14t-9 -31v-1268h258q121 0 188.5 37t105.5 104.5t85 205.5h57v-408h-1237z" />
<glyph unicode="M" horiz-adv-x="1970" d="M53 0v41l76 16q31 6 40 14.5t9 30.5v1229q0 23 -9 31t-40 14l-76 17v41h525l421 -912l377 912h541v-41l-76 -17q-31 -6 -40 -14t-9 -31v-1229q0 -23 9 -31t40 -14l76 -16v-41h-664v41l74 16q29 6 38 13.5t9 29.5v1160l-520 -1260h-61l-549 1206v-1106q0 -23 9 -30t38 -13 l74 -16v-41h-312z" />
<glyph unicode="N" horiz-adv-x="1523" d="M53 0v41l76 16q31 6 40 14.5t9 30.5v1229q0 23 -9 31t-40 14l-76 17v41h568l659 -832v731q0 23 -9 30t-38 13l-74 17v41h311v-41l-75 -17q-31 -6 -40 -14t-9 -31v-1331h-74l-1028 1300v-1200q0 -23 9 -30t38 -13l74 -16v-41h-312z" />
<glyph unicode="O" horiz-adv-x="1748" d="M115 717q0 389 207.5 565t551.5 176q347 0 553.5 -175t206.5 -566t-206.5 -566.5t-553.5 -175.5q-346 0 -552.5 175.5t-206.5 566.5zM567 717q0 -256 24.5 -401.5t91.5 -213t191 -67.5q125 0 192 67.5t91.5 213t24.5 401.5t-24.5 401.5t-91.5 213t-192 67.5t-191.5 -67.5 t-91 -213t-24.5 -401.5z" />
<glyph unicode="P" horiz-adv-x="1515" d="M53 0v41l76 16q31 6 40 14.5t9 30.5v1229q0 23 -9 31t-40 14l-76 17v41h596q279 0 445 -40t244.5 -133.5t78.5 -259.5q0 -165 -78.5 -258.5t-244.5 -133.5t-445 -40h-53v-465q0 -23 9 -30.5t40 -14.5l88 -18v-41h-680zM596 631h72q121 0 189.5 37t99 116.5t30.5 216.5 t-30.5 217t-99.5 117t-189 37h-72v-741z" />
<glyph unicode="Q" horiz-adv-x="1753" d="M115 725q0 389 206.5 561t552.5 172q347 0 553.5 -172t206.5 -561t-206.5 -561t-553.5 -172q-346 0 -552.5 172t-206.5 561zM455 -184q76 102 198 102q55 0 118 -13.5t171 -43.5q109 -31 187.5 -48.5t152.5 -17.5q35 0 56.5 15.5t45.5 48.5l17 22l45 -10 q-43 -168 -101.5 -250t-154.5 -82q-78 0 -142.5 26.5t-162.5 82.5q-117 68 -211 103.5t-219 39.5v25zM567 725q0 -256 24.5 -398.5t91.5 -209t191 -66.5q125 0 192 66.5t91.5 209t24.5 398.5t-24.5 398.5t-91.5 209t-192 66.5t-191.5 -66.5t-91 -209t-24.5 -398.5z" />
<glyph unicode="R" horiz-adv-x="1630" d="M53 0v41l76 16q31 6 40 14.5t9 30.5v1229q0 23 -9 31t-40 14l-76 17v41h602q274 0 436 -36t236 -118t74 -223q0 -158 -94.5 -243t-305.5 -116q121 -8 194 -38.5t114 -97t63 -183.5l23 -123q16 -88 23 -119t20.5 -47t42.5 -16q51 0 86 76l43 -37q-29 -59 -87.5 -96 t-189.5 -37t-206.5 28.5t-118.5 101t-66 209.5l-24 154q-17 100 -38.5 140t-68.5 53.5t-156 13.5h-59v-576q0 -23 9 -30.5t40 -14.5l88 -18v-41h-680zM596 741h78q119 0 183.5 33t89 100.5t24.5 182.5t-24.5 182.5t-89 100t-183.5 32.5h-78v-631z" />
<glyph unicode="S" horiz-adv-x="1388" d="M115 1063q0 197 139 296t442 99q135 0 261 -26.5t212 -67.5l-49 -313h-55q-39 125 -81 198.5t-113.5 113.5t-190.5 40q-270 0 -270 -176q0 -72 32.5 -119t98 -85t217.5 -112l41 -18q190 -92 281 -149.5t144.5 -142.5t53.5 -220q0 -201 -150.5 -303.5t-472.5 -102.5 q-129 0 -285.5 29t-242.5 70l55 360h54q27 -160 80 -248t132.5 -121.5t196.5 -33.5q133 0 207 51t74 147q0 78 -34 129.5t-103.5 94.5t-204.5 102q-172 76 -266.5 134.5t-148.5 147.5t-54 226z" />
<glyph unicode="T" horiz-adv-x="1482" d="M53 1020v414h1377v-414h-46q-53 143 -88.5 208.5t-104.5 106.5t-194 41h-47v-1274q0 -22 9.5 -30.5t39.5 -14.5l76 -16v-41h-667v41l75 16q31 6 40 14.5t9 30.5v1274h-47q-125 0 -193.5 -41t-104 -106.5t-89.5 -208.5h-45z" />
<glyph unicode="U" horiz-adv-x="1544" d="M41 1393v41h664v-41l-74 -17q-29 -6 -38 -13t-9 -30v-829q0 -174 24.5 -270.5t95 -142.5t207.5 -46q197 0 301.5 129t104.5 342v815q0 23 -9.5 31t-39.5 14l-76 17v41h311v-41l-73 -17q-29 -6 -38.5 -13t-9.5 -30v-801q-4 -258 -139 -407.5t-436 -149.5 q-328 0 -484.5 133.5t-156.5 432.5v790q0 23 -9.5 31t-39.5 14z" />
<glyph unicode="V" horiz-adv-x="1560" d="M37 1393v41h676v-41l-84 -9q-31 -4 -31 -30q0 -12 6 -25l373 -840l346 848q6 16 6 25q0 18 -29 22l-88 9v41h312v-41l-76 -9q-25 -2 -35 -12t-22 -37l-562 -1358h-65l-594 1358q-12 27 -22.5 37t-34.5 12z" />
<glyph unicode="W" horiz-adv-x="2347" d="M45 1393v41h672v-41l-80 -9q-29 -4 -29 -32q0 -6 4 -23l312 -811l219 606l-84 211q-10 27 -21.5 36t-36.5 13l-71 9v41h672v-41l-84 -9q-29 -4 -29 -32q0 -6 4 -23l311 -811l297 819q6 16 6 23q0 23 -30 24l-86 9v41h311v-41l-76 -9q-25 -2 -35 -12t-22 -37l-500 -1358 h-65l-426 1059l-390 -1059h-65l-545 1358q-10 27 -21.5 36t-35.5 13z" />
<glyph unicode="X" horiz-adv-x="1675" d="M41 1393v41h711v-41l-82 -9q-27 -2 -27 -20q0 -14 12 -31l279 -415l336 419q10 14 10 23q0 10 -8 17t-23 9l-90 9v39h361v-41l-78 -7q-35 -2 -50.5 -12t-39.5 -39l-381 -471l516 -766q18 -27 30.5 -37t34.5 -12l82 -8v-41h-710v41l82 8q27 2 26 21q0 16 -12 30l-328 486 l-383 -490q-10 -14 -10 -22q0 -10 8 -17.5t23 -9.5l90 -8v-39h-361v41l78 6q35 2 52.5 14.5t37.5 36.5l430 541l-469 696q-18 27 -30.5 37t-34.5 12z" />
<glyph unicode="Y" horiz-adv-x="1474" d="M8 1393v41h666v-41l-82 -9q-29 -2 -29 -24q0 -12 8 -27l328 -618l365 622q4 13 4 15q0 14 -12.5 23t-28.5 11l-97 9v39h340v-41l-63 -7q-33 -2 -45 -13t-29 -38l-391 -671v-562q0 -23 9.5 -31t39.5 -14l76 -16v-41h-668v41l76 16q31 6 40 14.5t9 30.5v549l-377 684 q-14 25 -26 36t-33 13z" />
<glyph unicode="Z" horiz-adv-x="1560" d="M119 0v53l844 1319h-318q-123 0 -190.5 -34.5t-105.5 -102.5t-81 -201h-51v400h1213v-54l-846 -1319h411q123 0 190.5 36t105.5 104.5t81 206.5h51v-408h-1304z" />
<glyph unicode="[" horiz-adv-x="770" d="M217 -209v1811h459v-62h-187v-1687h187v-62h-459z" />
<glyph unicode="\" horiz-adv-x="614" d="M61 1458h62l430 -1483h-61z" />
<glyph unicode="]" horiz-adv-x="770" d="M94 -147h187v1687h-187v62h459v-1811h-459v62z" />
<glyph unicode="^" horiz-adv-x="1126" d="M102 651l441 807h41l440 -807h-63l-398 731l-397 -731h-64z" />
<glyph unicode="_" horiz-adv-x="1064" d="M0 -160h1065v-57h-1065v57z" />
<glyph unicode="`" horiz-adv-x="901" d="M215 1292q2 57 35 106.5t80 71.5q61 -63 161.5 -140t118.5 -91l78 -57l-10 -23q-102 16 -238.5 54t-224.5 79z" />
<glyph unicode="a" horiz-adv-x="1318" d="M78 227q0 127 74.5 199t218 102.5t381.5 36.5v150q0 115 -45 165t-158 50q-94 0 -175 -25.5t-165 -77.5l-27 39q98 70 236.5 112t310.5 42q231 0 329.5 -91t98.5 -263v-568q0 -23 9.5 -31t39.5 -14l72 -16v-37h-422q-57 0 -80.5 23.5t-23.5 78.5v11q-137 -133 -392 -133 q-133 0 -207.5 60t-74.5 187zM475 256q0 -78 27.5 -112.5t87.5 -34.5h2q87 0 160 69v332q-115 -8 -174.5 -36t-81 -79t-21.5 -139z" />
<glyph unicode="b" horiz-adv-x="1527" d="M49 0v37l72 16q31 6 40 14.5t9 30.5v1237q0 23 -9 31t-40 14l-72 17v37l492 61h39v-577q137 102 352 102q227 0 360 -124t133 -388q0 -274 -134 -403.5t-359 -129.5q-229 0 -357 140v-115h-526zM580 178q47 -51 106 -83t125 -32q74 0 116 46.5t59.5 141.5t17.5 257 q0 227 -45.5 326.5t-157.5 99.5q-127 0 -221 -78v-678z" />
<glyph unicode="c" horiz-adv-x="1302" d="M102 510q0 254 168 382t496 128q256 0 420 -82l-25 -268h-39q-43 152 -113.5 224.5t-205.5 72.5q-150 0 -212.5 -104.5t-62.5 -309.5q0 -170 27 -274.5t96.5 -158.5t196.5 -54q96 0 176 27.5t158 80.5l26 -39q-96 -74 -216 -117t-279 -43q-289 0 -450 133.5t-161 401.5z " />
<glyph unicode="d" horiz-adv-x="1527" d="M102 508q0 264 133.5 388t360.5 124q123 0 206 -28.5t146 -73.5v417q0 23 -9 31t-40 14l-72 17v37l492 61h39v-1397q0 -23 9 -31t40 -14l72 -16v-37h-422q-56 0 -80.5 28.5t-24.5 86.5q-131 -139 -356 -140q-225 0 -359.5 129t-134.5 404zM524 508q0 -162 17.5 -257 t59.5 -141.5t116 -46.5q120 0 231 115v678q-98 78 -221 78q-113 0 -158 -99.5t-45 -326.5z" />
<glyph unicode="e" horiz-adv-x="1347" d="M102 510q0 248 166 379t465 131q170 0 287 -53.5t173 -142.5t56 -197q0 -55 -10 -103h-715q2 -227 73 -346t265 -119q96 0 171 29t155 82l26 -39q-190 -156 -503 -156q-283 0 -446 136.5t-163 398.5zM524 578h344v153q0 125 -29.5 182.5t-117.5 57.5q-113 0 -154 -94.5 t-43 -298.5z" />
<glyph unicode="f" horiz-adv-x="921" d="M41 942v53h133v164q0 170 104.5 253t346.5 83q199 0 325 -61l-24 -269h-43q-41 117 -65.5 169t-64.5 82t-110 30q-61 0 -90 -24.5t-29 -75.5q0 -45 8.5 -81t22.5 -83q10 -31 17.5 -63t7.5 -64v-60h247v-53h-247v-842q0 -23 9 -31t40 -14l76 -18v-37h-652v37l72 16 q31 6 40 14.5t9 30.5v844h-133z" />
<glyph unicode="g" horiz-adv-x="1417" d="M119 -223q0 86 67.5 133t178.5 61q-233 55 -234 219q0 178 217 218q-192 84 -192 276q0 180 140 256t400 76q125 -4 217 -21q59 90 166 148.5t256 58.5l-49 -235h-22l-52 14q-82 23 -143 23q-57 0 -92 -23q260 -74 260 -295q0 -178 -141.5 -257t-399.5 -79 q-145 0 -252 27q-63 -4 -111 -21.5t-48 -46.5q0 -31 26.5 -46t84 -24.5t190.5 -21.5l348 -33q147 -14 234 -46t127 -92t40 -159q0 -131 -95 -216t-244.5 -124t-319.5 -39q-244 0 -400.5 67t-156.5 202zM399 -186q0 -127 61.5 -188.5t229.5 -61.5q197 0 305.5 48t108.5 142 q0 53 -21.5 81t-70.5 43.5t-146 25.5l-288 33q-109 14 -152 22q-27 -57 -27 -145zM532 686q0 -147 34 -216t130 -69q97 0 130.5 69t33.5 216q0 141 -33.5 210t-130.5 69q-96 0 -130 -69t-34 -210z" />
<glyph unicode="h" horiz-adv-x="1536" d="M49 0v37l72 16q31 6 40 14.5t9 30.5v1237q0 23 -9 31t-40 14l-72 17v37l492 61h39v-627q78 63 188.5 107.5t247.5 44.5q190 0 272 -80t82 -240v-602q0 -22 9.5 -30.5t39.5 -14.5l72 -16v-37h-426q-55 0 -79.5 28.5t-24.5 86.5v622q0 92 -30 131t-100 39q-123 0 -251 -102 v-707q0 -23 9 -32t38 -15l69 -14v-37h-647z" />
<glyph unicode="i" horiz-adv-x="757" d="M53 0v37l72 16q31 6 40 14.5t9 30.5v774q0 23 -9 31t-40 15l-72 16v37l492 61h39v-934q0 -23 9 -31t40 -14l72 -16v-37h-652zM168 1323q0 84 57.5 128t153.5 44t153.5 -44t57.5 -128t-57.5 -128t-153.5 -44t-153.5 44t-57.5 128z" />
<glyph unicode="j" horiz-adv-x="794" d="M-109 -385l27 39q37 -33 84 -52.5t96 -19.5q63 0 90 42t27 167v1081q0 23 -9 31t-40 15l-72 16v37l492 61h39v-1095q0 -219 -90.5 -324t-309.5 -105q-217 0 -334 107zM209 1323q0 84 57.5 128t153.5 44t153.5 -44t57.5 -128t-57.5 -128t-153.5 -44t-153.5 44t-57.5 128z " />
<glyph unicode="k" horiz-adv-x="1531" d="M49 0v37l72 16q31 6 40 14.5t9 30.5v1237q0 23 -9 31t-40 14l-72 17v37l492 61h39v-930h118q162 0 225.5 71t63.5 200q1 100 -65 108l-23 2v37q123 37 240 37q121 0 168 -43t47 -125q0 -113 -86 -205t-301 -123q55 -14 92 -42.5t84 -88.5l227 -299q18 -23 30.5 -32 t35.5 -13l63 -12v-37h-393q-55 0 -86 17.5t-53 52.5l-318 442h-69v-414q0 -23 9 -32t38 -15l69 -14v-37h-647z" />
<glyph unicode="l" horiz-adv-x="749" d="M49 0v37l72 16q31 6 40 14.5t9 30.5v1237q0 23 -9 31t-40 14l-72 17v37l492 61h39v-1397q0 -23 9 -31t40 -14l71 -16v-37h-651z" />
<glyph unicode="m" horiz-adv-x="2269" d="M49 0v37l72 16q31 6 40 14.5t9 30.5v774q0 23 -9 31t-40 15l-72 16v37l492 61h34v-143q78 55 182.5 93t229.5 38q254 0 324 -152q78 63 189.5 107.5t248.5 44.5q190 0 272 -80t82 -240v-602q0 -23 9.5 -31t39.5 -14l72 -16v-37h-426q-55 0 -79.5 28.5t-24.5 86.5v622 q0 92 -30 131t-99 39q-111 0 -236 -90q12 -51 12 -117v-602q0 -23 9.5 -31t40.5 -14l71 -16v-37h-426q-55 0 -79.5 28.5t-24.5 86.5v622q0 92 -30 131t-99 39q-109 0 -223 -82v-727q0 -23 9 -32t38 -15l69 -14v-37h-647z" />
<glyph unicode="n" horiz-adv-x="1536" d="M49 0v37l72 16q31 6 40 14.5t9 30.5v774q0 23 -9 31t-40 15l-72 16v37l492 61h34v-166q78 63 191 108.5t250 45.5q190 0 272 -80t82 -240v-602q0 -22 9.5 -30.5t39.5 -14.5l72 -16v-37h-426q-55 0 -79.5 28.5t-24.5 86.5v622q0 92 -30 131t-100 39q-123 0 -251 -102v-707 q0 -23 9 -32t38 -15l69 -14v-37h-647z" />
<glyph unicode="o" horiz-adv-x="1482" d="M102 498q0 264 165 393t474 129t474 -129t165 -393q0 -265 -164.5 -394t-474.5 -129q-309 0 -474 129t-165 394zM528 498q0 -183 17.5 -281t62.5 -143t133 -45t133.5 45t62.5 143t17 281q0 182 -17 280.5t-62.5 143.5t-133.5 45t-133 -45t-62.5 -143.5t-17.5 -280.5z" />
<glyph unicode="p" horiz-adv-x="1527" d="M49 -426l72 16q31 6 40 14.5t9 30.5v1237q0 23 -9 31t-40 15l-72 16v37l492 61h34v-119q137 106 357 107q227 0 360 -123t133 -387q0 -272 -133 -401t-360 -129t-352 133v-478q0 -23 9 -30.5t40 -14.5l71 -16v-37h-651v37zM580 182q47 -51 106 -82.5t125 -31.5 q74 0 116 45t59.5 140t17.5 257q0 227 -45.5 325.5t-157.5 98.5q-127 0 -221 -78v-674z" />
<glyph unicode="q" horiz-adv-x="1527" d="M106 510q0 264 133.5 387t360.5 123q127 0 210 -29.5t146 -77.5v76l371 43h35v-1397q0 -23 9 -30.5t40 -14.5l72 -16v-37h-652v37l72 16q31 6 40 14.5t9 30.5v478q-129 -133 -352 -133q-227 0 -360.5 129t-133.5 401zM528 510q0 -162 17.5 -257t59.5 -140t116 -45h2 q119 0 229 114v674q-98 78 -221 78q-113 0 -158 -98.5t-45 -325.5z" />
<glyph unicode="r" horiz-adv-x="1105" d="M49 0v37l72 16q31 6 40 14.5t9 30.5v774q0 23 -9 31t-40 15l-72 16v37l492 61h34v-201q179 183 363 183q68 0 106 -17l-30 -319h-15l-419 92v-672q0 -23 9 -32t38 -15l69 -14v-37h-647z" />
<glyph unicode="s" horiz-adv-x="1138" d="M98 717q0 154 115 228.5t348 74.5q119 0 233.5 -23.5t178.5 -54.5l-25 -246h-35q-55 137 -133 208t-225 71q-94 0 -145.5 -25.5t-51.5 -93.5q0 -47 24 -75.5t74 -53.5t167 -72q168 -68 254 -117t126.5 -112.5t40.5 -159.5q0 -154 -117.5 -222.5t-353.5 -68.5 q-125 0 -261 24t-203 54l28 279h35q37 -162 131 -234.5t246 -72.5q96 0 142 28.5t46 100.5q0 49 -24.5 79.5t-77.5 55t-170 67.5q-199 72 -283 149t-84 212z" />
<glyph unicode="t" horiz-adv-x="913" d="M45 942v53q63 0 94 10.5t62 36.5l364 328h19v-375h264v-53h-264v-688q0 -98 23.5 -138t80.5 -40q45 0 80 18.5t76 63.5l33 -39q-129 -143 -381 -144q-170 0 -244 72t-74 223v672h-133z" />
<glyph unicode="u" horiz-adv-x="1527" d="M41 934v37l496 61h34v-774q0 -92 30 -131t99 -39q123 0 248 102v682q0 23 -9 31t-40 15l-72 16v37l496 61h35v-934q0 -23 9 -31t40 -14l72 -16v-37h-416q-59 0 -85 25.5t-26 80.5v23q-74 -63 -186.5 -108.5t-249.5 -45.5q-190 0 -272 80t-82 240v577q0 23 -9.5 31 t-39.5 15z" />
<glyph unicode="v" horiz-adv-x="1191" d="M8 965v30h643v-30l-53 -13q-47 -10 -47 -39q0 -12 10 -32l238 -478l223 521q6 12 6 20q0 12 -27 14l-53 7v30h236v-30l-54 -9q-25 -4 -35 -10t-20 -28l-416 -955h-36l-496 946q-10 18 -23.5 26.5t-33.5 12.5z" />
<glyph unicode="w" horiz-adv-x="1892" d="M8 965v30h627v-30l-37 -9q-47 -10 -47 -43q0 -12 10 -32l238 -478l131 308l-103 198q-10 20 -21 29.5t-28 13.5l-49 13v30h623v-30l-54 -13q-47 -10 -47 -39q0 -12 11 -32l237 -478l242 521q2 4 2 12q0 10 -10.5 14t-30.5 8l-53 7v30h235v-30l-53 -9q-25 -4 -35 -10 t-20 -28l-416 -955h-37l-362 690l-302 -690h-36l-496 946q-10 18 -23.5 26.5t-33.5 12.5z" />
<glyph unicode="x" horiz-adv-x="1323" d="M20 965v30h666v-30l-65 -13q-37 -6 -37 -28q0 -14 18 -43l158 -219l235 262q10 10 11 20q0 12 -23 17l-55 4v30h246v-30l-50 -9q-29 -4 -41 -10t-34 -28l-265 -293l390 -539q14 -18 27 -25.5t34 -11.5l68 -18v-31h-666v31l65 12q37 6 37 29q0 16 -18 43l-193 266 l-282 -309q-10 -10 -10 -21q0 -12 22 -16l55 -4v-31h-245v31l49 8q29 4 41 10t35 29l309 340l-352 491q-14 18 -27.5 25.5t-34.5 11.5z" />
<glyph unicode="y" horiz-adv-x="1191" d="M8 965v30h643v-30l-53 -13q-47 -10 -47 -39q0 -12 10 -32l238 -478l223 521q6 12 6 20q0 12 -27 14l-53 7v30h236v-30l-54 -9q-25 -4 -35 -10t-20 -28l-399 -918q-82 -190 -134.5 -279.5t-117 -137.5t-172.5 -75l-111 312q139 6 264 46t216 101l-494 942 q-10 18 -23.5 26.5t-33.5 12.5z" />
<glyph unicode="z" horiz-adv-x="1155" d="M66 0v41l596 903h-226q-94 0 -144 -19.5t-79 -63.5t-57 -134h-41v268h962v-41l-596 -903h279q94 0 144 20.5t79 66.5t57 138h41v-276h-1015z" />
<glyph unicode="{" horiz-adv-x="778" d="M127 670v53l92 14q33 4 45 22.5t12 49.5q0 29 -6 61q-4 27 -10 57.5t-12 65.5q-20 113 -29.5 176.5t-9.5 120.5q0 135 75.5 216t256.5 89l135 7v-58l-129 -8q-51 -2 -70.5 -22.5t-19.5 -57.5q0 -33 30 -178q27 -125 43.5 -221t16.5 -180q0 -80 -39 -124t-154 -57 q115 -12 154 -56t39 -124q0 -84 -16.5 -180t-43.5 -221q-31 -145 -30 -178q0 -37 19.5 -57.5t70.5 -22.5l129 -9v-57l-135 6q-180 8 -256 89t-76 216q0 57 9 121t30 176q6 35 12 66t10 57q6 35 6 62q0 31 -12 49t-45 22z" />
<glyph unicode="|" horiz-adv-x="512" d="M225 -209v1811h62v-1811h-62z" />
<glyph unicode="}" horiz-adv-x="778" d="M102 -152l129 9q51 2 71 22.5t20 57.5q0 33 -31 178q-27 125 -43.5 221t-16.5 180q0 80 39 124t154 56q-115 12 -154 56.5t-39 124.5q0 84 16.5 180t43.5 221q31 145 31 178q0 37 -19.5 57.5t-71.5 22.5l-129 8v58l136 -7q180 -8 255.5 -89t75.5 -216q0 -57 -9 -120.5 t-30 -176.5q-6 -35 -12 -65.5t-10 -57.5q-6 -33 -6 -61q0 -31 12 -49.5t45 -22.5l92 -14v-53l-92 -15q-33 -4 -45 -22.5t-12 -48.5q0 -27 6 -62q4 -27 10 -57.5t12 -65.5q20 -113 29.5 -176t9.5 -121q0 -135 -75.5 -216t-255.5 -89l-136 -6v57z" />
<glyph unicode="~" horiz-adv-x="1167" d="M156 563q23 104 91 186t167 82q37 0 84 -19t116 -56q82 -41 130.5 -60.5t89.5 -19.5q47 0 78.5 38t64.5 109l35 -18q-23 -104 -91.5 -186t-166.5 -82q-37 0 -84 19t-117 56q-82 41 -130 60.5t-89 19.5q-47 0 -79 -38t-65 -109z" />
<glyph unicode="&#xa1;" horiz-adv-x="581" d="M98 -383l160 930h66l159 -930q-23 -35 -73 -53.5t-119 -18.5q-70 0 -120 18.5t-73 53.5zM119 848q0 70 50 119t122 49q71 0 121.5 -49t50.5 -119t-50.5 -119t-121.5 -49q-72 0 -122 49t-50 119z" />
<glyph unicode="&#xa2;" horiz-adv-x="1306" d="M102 510q0 254 168 382t496 128h39v180h61v-184q184 -12 320 -78l-25 -268h-39q-41 133 -97 203.5t-159 87.5v-895q166 6 316 108l26 -39q-154 -119 -342 -147v-193h-61v185q-57 -5 -92 -5q-289 0 -450 133.5t-161 401.5zM528 553q0 -240 58.5 -356.5t218.5 -128.5v899 h-2q-150 0 -212.5 -104.5t-62.5 -309.5z" />
<glyph unicode="&#xa3;" horiz-adv-x="1368" d="M82 754v57h127q-59 137 -59 246q0 203 173 302t457 99q137 0 254 -18.5t189 -55.5l-29 -311h-47q-33 119 -70 187.5t-106.5 106.5t-186.5 38q-145 0 -208.5 -61.5t-63.5 -176.5q0 -78 23.5 -147.5t68.5 -163.5l21 -45h342v-57h-320q45 -106 45 -201q0 -74 -46 -142.5 t-124 -123.5h649q23 0 31 9t15 40l12 51h41v-207q0 -92 -47 -136t-129 -44h-961l-10 47q145 35 225 116t80 183q0 43 -26.5 100.5t-79.5 151.5q-63 109 -86 156h-154z" />
<glyph unicode="&#xa4;" horiz-adv-x="1167" d="M205 307l129 154q-74 90 -74 209q0 121 74 207l-129 155l47 41l127 -151q88 72 205 71q116 1 204 -71l127 151l48 -41l-132 -155q37 -43 56.5 -96.5t19.5 -110.5q0 -117 -76 -209l132 -154l-48 -41l-127 152q-88 -72 -204 -72q-117 0 -205 72l-127 -152zM319 670 q0 -72 35 -133.5t96.5 -97.5t133.5 -36q71 0 132.5 36t96.5 97.5t35 133.5t-35 133t-96.5 97t-132.5 36q-72 0 -133.5 -36t-96.5 -97.5t-35 -132.5z" />
<glyph unicode="&#xa5;" horiz-adv-x="1478" d="M16 1393v41h666v-41l-82 -9q-29 -2 -29 -24q0 -12 9 -27l319 -684l356 688l5 15q0 14 -12.5 23t-28.5 11l-97 9v39h340v-41l-63 -7q-33 -2 -45.5 -13t-28.5 -38l-364 -700h268v-57h-287v-156h287v-57h-287v-263q0 -23 9.5 -31t39.5 -14l76 -16v-41h-668v41l76 16 q31 6 40 14.5t9 30.5v263h-286v57h286v156h-286v57h262l-344 700q-14 25 -26.5 36t-33.5 13z" />
<glyph unicode="&#xa6;" horiz-adv-x="512" d="M225 -209v746h62v-746h-62zM225 856v746h62v-746h-62z" />
<glyph unicode="&#xa7;" horiz-adv-x="1187" d="M111 584q0 113 93 185.5t259 131.5q-123 53 -189.5 96t-96.5 100.5t-30 143.5q0 154 133.5 234.5t378.5 80.5q92 0 190.5 -14t172.5 -35l-29 -258h-30q-31 139 -98.5 198.5t-192.5 59.5q-109 0 -163 -33.5t-54 -107.5q0 -51 22.5 -86t77.5 -66.5t160 -68.5 q131 -47 206.5 -94t111.5 -110.5t36 -158.5q0 -115 -89 -190.5t-245 -134.5q123 -53 190.5 -98.5t99.5 -105.5t32 -153q0 -143 -134.5 -224t-377.5 -81q-96 0 -217 22.5t-187 51.5l29 278h31q74 -303 331 -303q217 0 218 148q0 74 -58.5 122t-214.5 103q-133 49 -211 95 t-116.5 110.5t-38.5 161.5zM371 707q0 -48 24.5 -78.5t76.5 -57t163 -71.5q16 -8 49 -21q125 72 125 172q0 47 -21.5 79t-73.5 60.5t-157 71.5l-47 19q-63 -35 -101 -76t-38 -98z" />
<glyph unicode="&#xa8;" horiz-adv-x="901" d="M49 1323q0 63 44 106.5t114 43.5t114 -43.5t44 -106.5t-44.5 -106t-113.5 -43q-70 0 -114 43t-44 106zM537 1323q0 63 44 106.5t113 43.5q70 0 114 -43.5t44 -106.5t-44 -106t-114 -43q-69 0 -113 43t-44 106z" />
<glyph unicode="&#xa9;" horiz-adv-x="1716" d="M119 717q0 203 96 371.5t265 268t378 99.5t378 -99.5t265 -268t96 -371.5t-96 -372t-265 -268.5t-378 -99.5t-378 99.5t-265 268.5t-96 372zM172 717q0 -187 89 -344.5t247 -249.5t350 -92q193 0 350.5 92t246.5 249.5t89 344.5q0 186 -89 344t-246.5 250t-350.5 92 t-350.5 -92t-246.5 -250t-89 -344zM436 721q0 199 124 303t358 104q179 1 294 -65l-16 -213h-29q-33 123 -79 181.5t-142 58.5q-106 0 -148 -84t-42 -250q0 -135 17.5 -218t65.5 -126t138 -43q68 0 119 23.5t110 68.5l21 -31q-63 -63 -143 -98t-197 -35q-207 0 -329 106.5 t-122 317.5z" />
<glyph unicode="&#xaa;" horiz-adv-x="950" d="M66 899q0 127 116.5 177t364.5 57v104q0 78 -29 109.5t-106 31.5q-63 0 -119.5 -18.5t-116.5 -54.5l-20 34q143 106 370 107q311 0 312 -244v-385q0 -16 7 -21t27 -12l50 -10v-33h-304q-38 0 -54.5 16.5t-16.5 55.5v6q-96 -92 -266 -92q-94 0 -154.5 43t-60.5 129z M356 920q0 -53 19.5 -76t62.5 -23q54 0 109 51v215q-80 -6 -121 -23t-55.5 -51t-14.5 -93z" />
<glyph unicode="&#xab;" horiz-adv-x="995" d="M111 537v61l348 346l33 -29q-147 -174 -148 -348q0 -174 148 -348l-33 -29zM492 537v61l348 346l32 -29q-147 -174 -147 -348t147 -348l-32 -29z" />
<glyph unicode="&#xac;" horiz-adv-x="1167" d="M152 643v57h856v-350h-62v293h-794z" />
<glyph unicode="&#xad;" horiz-adv-x="638" d="M82 541v57h475v-57h-475z" />
<glyph unicode="&#xae;" horiz-adv-x="1257" d="M106 932q0 143 68 263t187.5 189.5t267.5 69.5q147 0 267 -69.5t187.5 -189.5t67.5 -263t-67.5 -263t-187.5 -189.5t-267 -69.5t-267 69.5t-188 189t-68 263.5zM145 932q0 -131 62.5 -242.5t173.5 -176t248 -64.5t247.5 64.5t173 176t62.5 242.5t-62.5 242.5t-173 176 t-247.5 64.5t-248 -64.5t-173.5 -176t-62.5 -242.5zM350 666v20l29 6q18 2 18 21v463q0 18 -18 20l-29 6v21h238q160 0 226.5 -33t66.5 -115q0 -59 -39 -93t-123 -46q72 -4 105.5 -30.5t45.5 -92.5l9 -49q2 -12 6 -33.5t9 -27t15 -5.5q25 0 37 27l21 -16q-29 -51 -115 -52 q-76 0 -108.5 28t-47.5 103l-10 60q-10 49 -21.5 64.5t-50.5 17.5h-36v-217q0 -18 18 -21l29 -6v-20h-275zM578 958h16q68 0 90.5 26t22.5 91q0 68 -22.5 93.5t-90.5 25.5h-16v-236z" />
<glyph unicode="&#xaf;" horiz-adv-x="901" d="M61 1196v49h779v-49h-779z" />
<glyph unicode="&#xb0;" horiz-adv-x="761" d="M98 1176q0 125 78 201.5t205 76.5q129 0 206 -77t77 -201q0 -123 -77 -201t-206 -78q-127 0 -205 78t-78 201zM156 1176q0 -100 61.5 -163t163.5 -63t163.5 62.5t61.5 163.5q0 100 -61.5 162.5t-163.5 62.5t-163.5 -62.5t-61.5 -162.5z" />
<glyph unicode="&#xb1;" horiz-adv-x="1167" d="M152 0v53h864v-53h-864zM152 643v57h401v404h61v-404h402v-57h-402v-403h-61v403h-401z" />
<glyph unicode="&#xb2;" horiz-adv-x="794" d="M29 1030q215 137 303 277.5t88 271.5q0 72 -30 108.5t-95 36.5q-63 0 -113.5 -18t-113.5 -57l-23 37q162 109 354 108q145 0 215 -57.5t70 -155.5q0 -131 -114.5 -226t-286.5 -177h340q16 0 23 6t9 20l9 41h32v-241h-657z" />
<glyph unicode="&#xb3;" horiz-adv-x="770" d="M45 1038l16 193h33q20 -70 40 -110t56.5 -64.5t100.5 -24.5q74 0 111.5 41t37.5 137q0 88 -33.5 135.5t-111.5 47.5h-64v45h66q66 0 95.5 35.5t29.5 115.5q0 141 -137 142q-59 0 -107.5 -15.5t-105.5 -46.5l-25 35q141 90 334 90q139 0 222 -49t83 -141q0 -141 -188 -187 q98 -10 154.5 -57t56.5 -133q0 -129 -97.5 -182.5t-289.5 -53.5q-166 0 -277 47z" />
<glyph unicode="&#xb4;" horiz-adv-x="901" d="M213 1182l78 57q18 14 118.5 91t161.5 140q47 -22 80 -71t35 -107q-88 -41 -224 -78.5t-239 -54.5z" />
<glyph unicode="&#xb5;" horiz-adv-x="1536" d="M49 -426l72 16q31 6 40 14.5t9 30.5v1237q0 23 -9 31t-40 15l-72 16v37l496 61h35v-774q0 -92 29.5 -131t99.5 -39q123 0 247 102v682q0 23 -9 31t-40 15l-71 16v37l495 61h35v-934q0 -23 9 -31t40 -14l72 -16v-37h-416q-59 0 -84.5 25.5t-25.5 80.5v23 q-68 -55 -165.5 -98t-215.5 -54v-342q0 -23 9 -30.5t40 -14.5l71 -16v-37h-651v37z" />
<glyph unicode="&#xb6;" horiz-adv-x="1032" d="M123 971q0 240 114.5 351.5t368.5 111.5h348v-62h-141q-53 0 -73.5 -19.5t-20.5 -70.5v-1325q0 -152 -43 -218.5t-168 -66.5q-84 0 -121 11v61q49 -8 105 -8q92 0 126.5 49t34.5 172v551h-47q-254 0 -368.5 111.5t-114.5 351.5z" />
<glyph unicode="&#xb7;" horiz-adv-x="548" d="M102 569q0 70 50.5 119t121.5 49q72 0 122 -49t50 -119t-50 -119t-122 -49q-71 0 -121.5 49.5t-50.5 118.5z" />
<glyph unicode="&#xb8;" horiz-adv-x="901" d="M319 -385l15 37q57 -27 141 -27q59 0 87 19.5t28 66.5q0 59 -44 89t-126 44l22 156h45l-8 -74q133 -6 208 -50t75 -128q0 -86 -70.5 -130t-177.5 -44q-51 0 -106.5 12.5t-88.5 28.5z" />
<glyph unicode="&#xb9;" horiz-adv-x="634" d="M74 1004v32l92 15q18 4 24.5 10t6.5 22v598h-119v33q195 20 352 80l31 -10v-703q0 -14 6 -21t20 -9l82 -15v-32h-495z" />
<glyph unicode="&#xba;" horiz-adv-x="1044" d="M78 1085q0 188 111.5 274.5t332.5 86.5t333 -86t112 -275q0 -188 -112 -274t-333 -86t-332.5 86t-111.5 274zM387 1085q0 -121 9.5 -186t39 -98t86.5 -33q58 0 87.5 33t38.5 98.5t9 185.5q0 121 -9 186.5t-38.5 98.5t-87.5 33q-57 0 -86.5 -33t-39 -98.5t-9.5 -186.5z " />
<glyph unicode="&#xbb;" horiz-adv-x="995" d="M123 219q147 174 147 348t-147 348l33 29l348 -346v-61l-348 -347zM504 219q147 174 147 348t-147 348l33 29l348 -346v-61l-348 -347z" />
<glyph unicode="&#xbc;" horiz-adv-x="1740" d="M74 655v33l92 14q18 4 24.5 10.5t6.5 22.5v598h-119v33q195 20 352 80l31 -10v-703q0 -14 6 -21t20 -10l82 -14v-33h-495zM479 0l819 1434h62l-819 -1434h-62zM946 217l527 561h114v-557h105v-45h-105v-100q0 -14 6 -21.5t21 -9.5l74 -12v-33h-476v33l80 12q18 4 24.5 10 t6.5 23v98h-369zM1012 221h311v330z" />
<glyph unicode="&#xbd;" horiz-adv-x="1740" d="M74 655v33l92 14q18 4 24.5 10.5t6.5 22.5v598h-119v33q195 20 352 80l31 -10v-703q0 -14 6 -21t20 -10l82 -14v-33h-495zM379 0l819 1434h62l-820 -1434h-61zM975 27q215 137 303 277t88 271q0 72 -29.5 109t-95.5 37q-63 0 -113.5 -18.5t-113.5 -57.5l-23 37 q164 109 355 109q145 0 214.5 -57.5t69.5 -155.5q0 -132 -114.5 -227t-286.5 -177h340q16 0 23 6t10 21l8 41h32v-242h-657z" />
<glyph unicode="&#xbe;" horiz-adv-x="1740" d="M45 690l16 193h33q20 -70 40 -110t56.5 -64.5t100.5 -24.5q74 0 111.5 41t37.5 137q0 88 -33.5 135t-111.5 47h-64v46h66q66 0 95.5 35.5t29.5 115.5q0 141 -137 141q-59 0 -107.5 -15t-105.5 -46l-25 35q141 90 334 90q139 0 222 -49t83 -142q0 -141 -188 -186 q98 -10 154.5 -57t56.5 -133q0 -129 -97.5 -182.5t-289.5 -53.5q-166 0 -277 47zM512 0l819 1434h62l-820 -1434h-61zM946 217l527 561h114v-557h105v-45h-105v-100q0 -14 6 -21.5t21 -9.5l74 -12v-33h-476v33l80 12q18 4 24.5 10t6.5 23v98h-369zM1012 221h311v330z" />
<glyph unicode="&#xbf;" horiz-adv-x="1159" d="M98 -137q0 190 132 285.5t339 130.5l27 268h57l23 -268q-189 -150 -189 -398q0 -238 234 -237q113 0 191.5 28.5t172.5 94.5l25 -39q-125 -90 -254 -138.5t-324 -48.5q-211 0 -322.5 81t-111.5 241zM453 848q0 70 50 119t122 49q71 0 121.5 -49t50.5 -119t-50.5 -119 t-121.5 -49q-72 0 -122 49t-50 119z" />
<glyph unicode="&#xc0;" horiz-adv-x="1572" d="M37 0v41l76 8q25 2 35 12.5t22 36.5l567 1358h66l600 -1358q12 -27 22.5 -37t34.5 -12l76 -8v-41h-676v41l88 8q29 4 29 23q0 10 -6 24l-135 299h-476l-122 -299q-6 -14 -7 -24q0 -18 29 -23l88 -8v-41h-311zM348 1690q2 57 35 106t80 72q61 -64 161.5 -140.5 t118.5 -91.5l78 -57l-10 -23q-102 16 -238.5 54.5t-224.5 79.5zM385 457h424l-221 489z" />
<glyph unicode="&#xc1;" horiz-adv-x="1572" d="M37 0v41l76 8q25 2 35 12.5t22 36.5l567 1358h66l600 -1358q12 -27 22.5 -37t34.5 -12l76 -8v-41h-676v41l88 8q29 4 29 23q0 10 -6 24l-135 299h-476l-122 -299q-6 -14 -7 -24q0 -18 29 -23l88 -8v-41h-311zM385 457h424l-221 489zM731 1579l78 57q18 14 118.5 91 t162.5 141q47 -23 79.5 -72t34.5 -106q-88 -41 -224 -79t-239 -55z" />
<glyph unicode="&#xc2;" horiz-adv-x="1572" d="M37 0v41l76 8q25 2 35 12.5t22 36.5l567 1358h66l600 -1358q12 -27 22.5 -37t34.5 -12l76 -8v-41h-676v41l88 8q29 4 29 23q0 10 -6 24l-135 299h-476l-122 -299q-6 -14 -7 -24q0 -18 29 -23l88 -8v-41h-311zM385 457h424l-221 489zM438 1587q147 121 275 281h106 q121 -152 275 -281l-23 -31q-150 51 -305 142q-156 -90 -305 -142z" />
<glyph unicode="&#xc3;" horiz-adv-x="1572" d="M37 0v41l76 8q25 2 35 12.5t22 36.5l567 1358h66l600 -1358q12 -27 22.5 -37t34.5 -12l76 -8v-41h-676v41l88 8q29 4 29 23q0 10 -6 24l-135 299h-476l-122 -299q-6 -14 -7 -24q0 -18 29 -23l88 -8v-41h-311zM379 1591q31 80 54.5 129t63.5 88t95 39q37 0 91 -18.5 t191 -73.5l74 -29q18 -8 47 -8q25 0 47.5 10.5t36.5 28.5l49 62l25 -11q-31 -80 -54.5 -129t-63.5 -88t-95 -39q-37 0 -91 18.5t-192 74.5l-73 28q-18 8 -47 8q-25 0 -47.5 -10t-36.5 -29l-50 -61zM385 457h424l-221 489z" />
<glyph unicode="&#xc4;" horiz-adv-x="1556" d="M37 0v41l76 8q25 2 35 12.5t22 36.5l567 1358h66l600 -1358q12 -27 22.5 -37t34.5 -12l76 -8v-41h-676v41l88 8q29 4 29 23q0 10 -6 24l-135 299h-476l-122 -299q-6 -14 -7 -24q0 -18 29 -23l88 -8v-41h-311zM375 1720q0 63 44 106.5t113 43.5q70 0 114 -43t44 -107 q0 -63 -44 -106t-114 -43q-69 0 -113 43t-44 106zM385 457h424l-221 489zM862 1720q0 63 44 106.5t114 43.5t114 -43t44 -107q0 -63 -44 -106t-114 -43t-114 43t-44 106z" />
<glyph unicode="&#xc5;" horiz-adv-x="1556" d="M37 0v41l76 8q25 2 35 12.5t22 36.5l539 1309q-82 12 -132.5 59t-50.5 131q0 96 66.5 145.5t167.5 49.5q100 0 166.5 -49t66.5 -146q0 -84 -49 -131t-129 -59l571 -1309q12 -27 22.5 -37t35.5 -12l76 -8v-41h-676v41l88 8q29 4 29 25q0 8 -7 22l-141 320h-448l-132 -320 q-6 -14 -6 -22q0 -20 29 -25l88 -8v-41h-307zM389 477h397l-204 467zM672 1597q0 -80 20.5 -119.5t67.5 -39.5t67.5 40t20.5 119q0 80 -20.5 120t-67.5 40t-67.5 -40t-20.5 -120z" />
<glyph unicode="&#xc6;" horiz-adv-x="2138" d="M33 0v41l80 8q25 2 36 12.5t27 36.5l770 1270l-31 8l-75 17v41h1179v-400h-55q-47 137 -83 203t-102.5 100.5t-187.5 34.5h-209v-608h447v-62h-447v-641h230q121 0 188.5 37t105.5 104.5t85 205.5h57v-408h-1208v41l75 16q31 6 40.5 14.5t9.5 30.5v351h-500l-213 -357 q-10 -16 -10 -28q0 -14 24 -19l86 -8v-41h-319zM502 514h463v766z" />
<glyph unicode="&#xc7;" horiz-adv-x="1544" d="M115 737q0 371 220 546t576 175q143 0 282.5 -26.5t219.5 -65.5l-29 -352h-57q-57 174 -154.5 279.5t-259.5 105.5q-186 0 -267 -152.5t-81 -455.5q0 -358 104.5 -535.5t366.5 -177.5q113 0 204 37t173 102l41 -45q-90 -84 -234.5 -140.5t-318.5 -56.5q-43 0 -63 2 l-4 -51q133 -6 207.5 -50t74.5 -128q0 -86 -70.5 -130t-177.5 -44q-51 0 -106 12.5t-88 28.5l14 37q57 -27 141 -27q59 0 87 19.5t28 66.5q0 59 -44 89t-126 44l19 138q-304 24 -491 205.5t-187 549.5z" />
<glyph unicode="&#xc8;" horiz-adv-x="1474" d="M53 0v41l76 16q31 6 40 14.5t9 30.5v1229q0 23 -9 31t-40 14l-76 17v41h1262v-400h-51q-43 133 -81 201t-105.5 102.5t-190.5 34.5h-291v-608h528v-62h-528v-641h311q121 0 190.5 37t109.5 106.5t83 203.5h53v-408h-1290zM524 1690q2 57 35 106t80 72 q61 -64 161.5 -140.5t119.5 -91.5l77 -57l-10 -23q-102 16 -238.5 54.5t-224.5 79.5z" />
<glyph unicode="&#xc9;" horiz-adv-x="1474" d="M53 0v41l76 16q31 6 40 14.5t9 30.5v1229q0 23 -9 31t-40 14l-76 17v41h1262v-400h-51q-43 133 -81 201t-105.5 102.5t-190.5 34.5h-291v-608h528v-62h-528v-641h311q121 0 190.5 37t109.5 106.5t83 203.5h53v-408h-1290zM539 1579l77 57q18 14 119 91t162 141 q47 -23 80 -72t35 -106q-88 -41 -224.5 -79t-238.5 -55z" />
<glyph unicode="&#xca;" horiz-adv-x="1474" d="M53 0v41l76 16q31 6 40 14.5t9 30.5v1229q0 23 -9 31t-40 14l-76 17v41h1262v-400h-51q-43 133 -81 201t-105.5 102.5t-190.5 34.5h-291v-608h528v-62h-528v-641h311q121 0 190.5 37t109.5 106.5t83 203.5h53v-408h-1290zM451 1587q147 121 274 281h106 q121 -152 275 -281l-23 -31q-150 51 -305 142q-156 -90 -305 -142z" />
<glyph unicode="&#xcb;" horiz-adv-x="1474" d="M53 0v41l76 16q31 6 40 14.5t9 30.5v1229q0 23 -9 31t-40 14l-76 17v41h1262v-400h-51q-43 133 -81 201t-105.5 102.5t-190.5 34.5h-291v-608h528v-62h-528v-641h311q121 0 190.5 37t109.5 106.5t83 203.5h53v-408h-1290zM356 1720q0 63 44 106.5t114 43.5t114 -43 t44 -107q0 -63 -44 -106t-114 -43t-114 43t-44 106zM844 1720q0 63 44 106.5t113 43.5q70 0 114 -43t44 -107q0 -63 -44 -106t-114 -43q-69 0 -113 43t-44 106z" />
<glyph unicode="&#xcc;" horiz-adv-x="790" d="M61 0v41l76 16q31 6 40 14.5t9 30.5v1229q0 23 -9 31t-40 14l-76 17v41h668v-41l-76 -17q-31 -6 -40 -14t-9 -31v-1229q0 -23 9.5 -31t39.5 -14l76 -16v-41h-668zM100 1690q2 57 35 106t80 72q61 -64 161.5 -140.5t119.5 -91.5l77 -57l-10 -23q-102 16 -238.5 54.5 t-224.5 79.5z" />
<glyph unicode="&#xcd;" horiz-adv-x="790" d="M61 0v41l76 16q31 6 40 14.5t9 30.5v1229q0 23 -9 31t-40 14l-76 17v41h668v-41l-76 -17q-31 -6 -40 -14t-9 -31v-1229q0 -23 9.5 -31t39.5 -14l76 -16v-41h-668zM238 1579l77 57q18 14 119 91t162 141q47 -23 80 -72t35 -106q-88 -41 -224.5 -79t-238.5 -55z" />
<glyph unicode="&#xce;" horiz-adv-x="790" d="M61 0v41l76 16q31 6 40 14.5t9 30.5v1229q0 23 -9 31t-40 14l-76 17v41h668v-41l-76 -17q-31 -6 -40 -14t-9 -31v-1229q0 -23 9.5 -31t39.5 -14l76 -16v-41h-668zM68 1587q147 121 274 281h107q120 -152 274 -281l-23 -31q-150 51 -305 142q-156 -90 -305 -142z" />
<glyph unicode="&#xcf;" horiz-adv-x="790" d="M-6 1720q0 63 44 106.5t114 43.5t113.5 -43t43.5 -107q0 -63 -44 -106t-113 -43q-70 0 -114 43t-44 106zM61 0v41l76 16q31 6 40 14.5t9 30.5v1229q0 23 -9 31t-40 14l-76 17v41h668v-41l-76 -17q-31 -6 -40 -14t-9 -31v-1229q0 -23 9.5 -31t39.5 -14l76 -16v-41h-668z M481 1720q0 63 44 106.5t114 43.5t114 -43t44 -107q0 -63 -44 -106t-114 -43t-114 43t-44 106z" />
<glyph unicode="&#xd0;" horiz-adv-x="1675" d="M53 0v41l76 16q31 6 40 14.5t9 30.5v562h-125v57h125v610q0 23 -9 31t-40 14l-76 17v41h627q430 0 655.5 -162t225.5 -555t-225.5 -555t-655.5 -162h-627zM596 61h84q170 0 262 60.5t129 200t37 395.5t-37 395t-129 199.5t-262 60.5h-84v-651h281v-57h-281v-603z" />
<glyph unicode="&#xd1;" horiz-adv-x="1523" d="M53 0v41l76 16q31 6 40 14.5t9 30.5v1229q0 23 -9 31t-40 14l-76 17v41h568l659 -832v731q0 23 -9 30t-38 13l-74 17v41h311v-41l-75 -17q-31 -6 -40 -14t-9 -31v-1331h-74l-1028 1300v-1200q0 -23 9 -30t38 -13l74 -16v-41h-312zM375 1591q31 80 54.5 129t63 88t95.5 39 q37 0 91 -18.5t191 -73.5l74 -29q18 -8 47 -8q25 0 47.5 10.5t36.5 28.5l49 62l25 -11q-31 -80 -54.5 -129t-63.5 -88t-95 -39q-37 0 -91 18.5t-192 74.5l-73 28q-18 8 -48 8q-25 0 -47 -10t-36 -29l-50 -61z" />
<glyph unicode="&#xd2;" horiz-adv-x="1748" d="M115 717q0 389 207.5 565t551.5 176q347 0 553.5 -175t206.5 -566t-206.5 -566.5t-553.5 -175.5q-346 0 -552.5 175.5t-206.5 566.5zM518 1690q2 57 35 106t80 72q61 -64 161.5 -140.5t118.5 -91.5l78 -57l-10 -23q-102 16 -238.5 54.5t-224.5 79.5zM567 717 q0 -256 24.5 -401.5t91.5 -213t191 -67.5q125 0 192 67.5t91.5 213t24.5 401.5t-24.5 401.5t-91.5 213t-192 67.5t-191.5 -67.5t-91 -213t-24.5 -401.5z" />
<glyph unicode="&#xd3;" horiz-adv-x="1748" d="M115 717q0 389 207.5 565t551.5 176q347 0 553.5 -175t206.5 -566t-206.5 -566.5t-553.5 -175.5q-346 0 -552.5 175.5t-206.5 566.5zM567 717q0 -256 24.5 -401.5t91.5 -213t191 -67.5q125 0 192 67.5t91.5 213t24.5 401.5t-24.5 401.5t-91.5 213t-192 67.5t-191.5 -67.5 t-91 -213t-24.5 -401.5zM758 1579l78 57q18 14 118.5 91t161.5 141q47 -23 80 -72t35 -106q-88 -41 -224.5 -79t-238.5 -55z" />
<glyph unicode="&#xd4;" horiz-adv-x="1748" d="M115 717q0 389 207.5 565t551.5 176q347 0 553.5 -175t206.5 -566t-206.5 -566.5t-553.5 -175.5q-346 0 -552.5 175.5t-206.5 566.5zM547 1587q147 121 274 281h107q120 -152 274 -281l-22 -31q-150 51 -306 142q-156 -90 -305 -142zM567 717q0 -256 24.5 -401.5 t91.5 -213t191 -67.5q125 0 192 67.5t91.5 213t24.5 401.5t-24.5 401.5t-91.5 213t-192 67.5t-191.5 -67.5t-91 -213t-24.5 -401.5z" />
<glyph unicode="&#xd5;" horiz-adv-x="1748" d="M115 717q0 389 207.5 565t551.5 176q347 0 553.5 -175t206.5 -566t-206.5 -566.5t-553.5 -175.5q-346 0 -552.5 175.5t-206.5 566.5zM487 1591q31 80 54.5 129t63.5 88t95 39q37 0 91.5 -18.5t191.5 -73.5l74 -29q18 -8 47 -8q25 0 47.5 10.5t36.5 28.5l49 62l25 -11 q-31 -80 -54.5 -129t-63.5 -88t-95 -39q-37 0 -91.5 18.5t-191.5 74.5l-74 28q-18 8 -47 8q-25 0 -47.5 -10t-36.5 -29l-49 -61zM567 717q0 -256 24.5 -401.5t91.5 -213t191 -67.5q125 0 192 67.5t91.5 213t24.5 401.5t-24.5 401.5t-91.5 213t-192 67.5t-191.5 -67.5 t-91 -213t-24.5 -401.5z" />
<glyph unicode="&#xd6;" horiz-adv-x="1748" d="M115 717q0 389 207.5 565t551.5 176q347 0 553.5 -175t206.5 -566t-206.5 -566.5t-553.5 -175.5q-346 0 -552.5 175.5t-206.5 566.5zM473 1720q0 63 44 106.5t114 43.5t113.5 -43t43.5 -107q0 -63 -44 -106t-113 -43q-70 0 -114 43t-44 106zM567 717q0 -256 24.5 -401.5 t91.5 -213t191 -67.5q125 0 192 67.5t91.5 213t24.5 401.5t-24.5 401.5t-91.5 213t-192 67.5t-191.5 -67.5t-91 -213t-24.5 -401.5zM961 1720q0 63 44 106.5t113 43.5q70 0 114 -43t44 -107q0 -63 -44 -106t-114 -43q-69 0 -113 43t-44 106z" />
<glyph unicode="&#xd7;" horiz-adv-x="1167" d="M213 344l328 328l-328 327l43 43l328 -327l327 327l43 -43l-327 -327l327 -328l-43 -43l-327 328l-328 -328z" />
<glyph unicode="&#xd8;" horiz-adv-x="1748" d="M115 717q0 389 207.5 565t551.5 176q211 1 373 -65l90 149l52 -31l-86 -143q332 -172 331 -651q0 -391 -206.5 -566.5t-553.5 -175.5q-211 0 -374 64l-88 -148l-52 31l86 144q-332 172 -331 651zM567 717q0 -275 27 -408l541 897q-33 100 -95.5 146.5t-165.5 46.5 q-125 0 -191.5 -67.5t-91 -213t-24.5 -401.5zM612 227q33 -100 95.5 -146t166.5 -46q125 0 192 67.5t91.5 213t24.5 401.5t-27 407z" />
<glyph unicode="&#xd9;" horiz-adv-x="1544" d="M41 1393v41h664v-41l-74 -17q-29 -6 -38 -13t-9 -30v-829q0 -174 24.5 -270.5t95 -142.5t207.5 -46q197 0 301.5 129t104.5 342v815q0 23 -9.5 31t-39.5 14l-76 17v41h311v-41l-73 -17q-29 -6 -38.5 -13t-9.5 -30v-801q-4 -258 -139 -407.5t-436 -149.5 q-328 0 -484.5 133.5t-156.5 432.5v790q0 23 -9.5 31t-39.5 14zM539 1690q2 57 34.5 106t79.5 72q62 -64 162 -140.5t119 -91.5l78 -57l-11 -23q-102 16 -238 54.5t-224 79.5z" />
<glyph unicode="&#xda;" horiz-adv-x="1544" d="M41 1393v41h664v-41l-74 -17q-29 -6 -38 -13t-9 -30v-829q0 -174 24.5 -270.5t95 -142.5t207.5 -46q197 0 301.5 129t104.5 342v815q0 23 -9.5 31t-39.5 14l-76 17v41h311v-41l-73 -17q-29 -6 -38.5 -13t-9.5 -30v-801q-4 -258 -139 -407.5t-436 -149.5 q-328 0 -484.5 133.5t-156.5 432.5v790q0 23 -9.5 31t-39.5 14zM819 1579l78 57q18 14 118.5 91t162.5 141q47 -23 79.5 -72t34.5 -106q-88 -41 -224 -79t-239 -55z" />
<glyph unicode="&#xdb;" horiz-adv-x="1544" d="M41 1393v41h664v-41l-74 -17q-29 -6 -38 -13t-9 -30v-829q0 -174 24.5 -270.5t95 -142.5t207.5 -46q197 0 301.5 129t104.5 342v815q0 23 -9.5 31t-39.5 14l-76 17v41h311v-41l-73 -17q-29 -6 -38.5 -13t-9.5 -30v-801q-4 -258 -139 -407.5t-436 -149.5 q-328 0 -484.5 133.5t-156.5 432.5v790q0 23 -9.5 31t-39.5 14zM588 1587q147 121 274 281h107q120 -152 274 -281l-22 -31q-150 51 -306 142q-156 -90 -305 -142z" />
<glyph unicode="&#xdc;" horiz-adv-x="1531" d="M41 1393v41h664v-41l-74 -17q-29 -6 -38 -13t-9 -30v-829q0 -174 24.5 -270.5t95 -142.5t207.5 -46q197 0 301.5 129t104.5 342v815q0 23 -9.5 31t-39.5 14l-76 17v41h311v-41l-73 -17q-29 -6 -38.5 -13t-9.5 -30v-801q-4 -258 -139 -407.5t-436 -149.5 q-328 0 -484.5 133.5t-156.5 432.5v790q0 23 -9.5 31t-39.5 14zM487 1720q0 63 44 106.5t114 43.5t114 -43t44 -107q0 -63 -44 -106t-114 -43t-114 43t-44 106zM975 1720q0 63 44 106.5t114 43.5t113.5 -43t43.5 -107q0 -63 -44 -106t-113 -43q-70 0 -114 43t-44 106z" />
<glyph unicode="&#xdd;" horiz-adv-x="1474" d="M8 1393v41h666v-41l-82 -9q-29 -2 -29 -24q0 -12 8 -27l328 -618l365 622q4 13 4 15q0 14 -12.5 23t-28.5 11l-97 9v39h340v-41l-63 -7q-33 -2 -45 -13t-29 -38l-391 -671v-562q0 -23 9.5 -31t39.5 -14l76 -16v-41h-668v41l76 16q31 6 40 14.5t9 30.5v549l-377 684 q-14 25 -26 36t-33 13zM766 1579l78 57q18 14 118.5 91t161.5 141q47 -23 80 -72t35 -106q-88 -41 -224 -79t-239 -55z" />
<glyph unicode="&#xde;" horiz-adv-x="1507" d="M53 0v41l76 16q31 6 40 14.5t9 30.5v1229q0 23 -9 31t-40 14l-76 17v41h680v-41l-88 -19q-31 -6 -40 -14t-9 -31v-190h45q279 0 443.5 -36t242.5 -123t78 -245t-78 -245t-242.5 -122.5t-443.5 -35.5h-45v-228q0 -23 9 -30.5t40 -14.5l88 -18v-41h-680zM596 393h63 q121 0 188.5 33t97.5 106.5t30 202.5t-30 203t-97.5 106.5t-188.5 32.5h-63v-684z" />
<glyph unicode="&#xdf;" horiz-adv-x="1579" d="M41 942v53h133v123q0 184 165 280.5t437 96.5q252 0 416 -71.5t164 -215.5q0 -115 -101.5 -179t-281.5 -105q516 -229 516 -582q0 -125 -63.5 -206t-164 -118.5t-214.5 -37.5q-217 0 -334 106l26 39q82 -63 191 -64q109 0 152.5 42t43.5 149q0 160 -93 283.5t-277 269.5 v47q166 92 224 198.5t58 200.5q0 199 -219 199q-98 0 -150.5 -35t-70.5 -99.5t-18 -168.5v-1147h-527v37l72 16q31 6 40 14.5t9 30.5v844h-133z" />
<glyph unicode="&#xe0;" horiz-adv-x="1318" d="M78 227q0 127 74.5 199t218 102.5t381.5 36.5v150q0 115 -45 165t-158 50q-94 0 -175 -25.5t-165 -77.5l-27 39q98 70 236.5 112t310.5 42q231 0 329.5 -91t98.5 -263v-568q0 -23 9.5 -31t39.5 -14l72 -16v-37h-422q-57 0 -80.5 23.5t-23.5 78.5v11q-137 -133 -392 -133 q-133 0 -207.5 60t-74.5 187zM426 1292q2 57 35 106.5t80 71.5q61 -63 161.5 -140t118.5 -91l78 -57l-10 -23q-102 16 -238.5 54t-224.5 79zM475 256q0 -78 27.5 -112.5t87.5 -34.5q88 -1 162 69v332q-115 -8 -174.5 -36t-81 -79t-21.5 -139z" />
<glyph unicode="&#xe1;" horiz-adv-x="1318" d="M78 227q0 127 74.5 199t218 102.5t381.5 36.5v150q0 115 -45 165t-158 50q-94 0 -175 -25.5t-165 -77.5l-27 39q98 70 236.5 112t310.5 42q231 0 329.5 -91t98.5 -263v-568q0 -23 9.5 -31t39.5 -14l72 -16v-37h-422q-57 0 -80.5 23.5t-23.5 78.5v11q-137 -133 -392 -133 q-133 0 -207.5 60t-74.5 187zM420 1182l78 57q18 14 118.5 91t161.5 140q47 -22 80 -71t35 -107q-88 -41 -224.5 -78.5t-238.5 -54.5zM475 256q0 -78 27.5 -112.5t87.5 -34.5q88 -1 162 69v332q-115 -8 -174.5 -36t-81 -79t-21.5 -139z" />
<glyph unicode="&#xe2;" horiz-adv-x="1318" d="M78 227q0 127 74.5 199t218 102.5t381.5 36.5v150q0 115 -45 165t-158 50q-94 0 -175 -25.5t-165 -77.5l-27 39q98 70 236.5 112t310.5 42q231 0 329.5 -91t98.5 -263v-568q0 -23 9.5 -31t39.5 -14l72 -16v-37h-422q-57 0 -80.5 23.5t-23.5 78.5v11q-137 -133 -392 -133 q-133 0 -207.5 60t-74.5 187zM332 1190q147 121 274 280h107q120 -151 274 -280l-22 -31q-150 51 -306 141q-156 -90 -305 -141zM475 256q0 -78 27.5 -112.5t87.5 -34.5q88 -1 162 69v332q-115 -8 -174.5 -36t-81 -79t-21.5 -139z" />
<glyph unicode="&#xe3;" horiz-adv-x="1318" d="M78 227q0 127 74.5 199t218 102.5t381.5 36.5v150q0 115 -45 165t-158 50q-94 0 -175 -25.5t-165 -77.5l-27 39q98 70 236.5 112t310.5 42q231 0 329.5 -91t98.5 -263v-568q0 -23 9.5 -31t39.5 -14l72 -16v-37h-422q-57 0 -80.5 23.5t-23.5 78.5v11q-137 -133 -392 -133 q-133 0 -207.5 60t-74.5 187zM293 1194q31 80 54.5 129t63.5 88t95 39q37 0 91 -18.5t191 -73.5l74 -29q18 -8 47 -8q25 0 47.5 10t36.5 29l49 61l25 -10q-31 -80 -54.5 -129t-63.5 -88t-95 -39q-37 0 -91 18.5t-192 73.5l-73 29q-18 8 -47 8q-25 0 -47.5 -10t-36.5 -29 l-50 -61zM475 256q0 -78 27.5 -112.5t87.5 -34.5q88 -1 162 69v332q-115 -8 -174.5 -36t-81 -79t-21.5 -139z" />
<glyph unicode="&#xe4;" horiz-adv-x="1318" d="M78 227q0 127 74.5 199t218 102.5t381.5 36.5v150q0 115 -45 165t-158 50q-94 0 -175 -25.5t-165 -77.5l-27 39q98 70 236.5 112t310.5 42q231 0 329.5 -91t98.5 -263v-568q0 -23 9.5 -31t39.5 -14l72 -16v-37h-422q-57 0 -80.5 23.5t-23.5 78.5v11q-137 -133 -392 -133 q-133 0 -207.5 60t-74.5 187zM279 1323q0 63 44 106.5t113 43.5q70 0 114 -43.5t44 -106.5t-44 -106t-114 -43q-69 0 -113 43t-44 106zM475 256q0 -78 27.5 -112.5t87.5 -34.5q88 -1 162 69v332q-115 -8 -174.5 -36t-81 -79t-21.5 -139zM766 1323q0 63 44 106.5t114 43.5 t113.5 -43.5t43.5 -106.5t-44 -106t-113 -43q-70 0 -114 43t-44 106z" />
<glyph unicode="&#xe5;" horiz-adv-x="1318" d="M78 227q0 127 74.5 199t218 102.5t381.5 36.5v150q0 115 -45 165t-158 50q-94 0 -175 -25.5t-165 -77.5l-27 39q98 70 236.5 112t310.5 42q231 0 329.5 -91t98.5 -263v-568q0 -23 9.5 -31t39.5 -14l72 -16v-37h-422q-57 0 -80.5 23.5t-23.5 78.5v11q-137 -133 -392 -133 q-133 0 -207.5 60t-74.5 187zM446 1354q0 96 67 145t167 49t166.5 -49t66.5 -145t-66.5 -145.5t-166.5 -49.5t-167 49t-67 146zM475 256q0 -78 27.5 -112.5t87.5 -34.5q88 -1 162 69v332q-115 -8 -174.5 -36t-81 -79t-21.5 -139zM592 1354q0 -80 20.5 -120t67.5 -40t67.5 40 t20.5 120t-20.5 119.5t-67.5 39.5t-67.5 -39.5t-20.5 -119.5z" />
<glyph unicode="&#xe6;" horiz-adv-x="1974" d="M78 227q0 127 77.5 199t226 102.5t386.5 36.5v150q0 115 -49 165t-162 50q-180 0 -348 -103l-27 39q96 68 238.5 111t308.5 43q186 0 293 -72q139 72 350 72q162 0 275.5 -53.5t171 -142.5t57.5 -197q0 -55 -10 -103h-690q2 -225 70.5 -345t254.5 -120q86 0 160 29 t154 82l26 -39q-190 -156 -491 -156q-154 0 -271.5 48.5t-193.5 138.5q-293 -182 -516 -182q-135 0 -213 61t-78 186zM475 256q0 -76 31 -111.5t92 -35.5q88 0 170 61v340q-117 -8 -179.5 -36t-88 -80t-25.5 -138zM1176 578h319v153q0 121 -29.5 180.5t-105.5 59.5 q-100 0 -141 -96.5t-43 -296.5z" />
<glyph unicode="&#xe7;" horiz-adv-x="1302" d="M102 510q0 254 168 382t496 128q256 0 420 -82l-25 -268h-39q-43 152 -113.5 224.5t-205.5 72.5q-150 0 -212.5 -104.5t-62.5 -309.5q0 -170 27 -274.5t96.5 -158.5t196.5 -54q96 0 176 27.5t158 80.5l26 -39q-96 -74 -216 -117t-279 -43q-39 0 -58 2l-4 -51 q133 -6 208 -50t75 -128q0 -86 -70.5 -130t-177.5 -44q-51 0 -106.5 12.5t-87.5 28.5l14 37q57 -27 141 -27q59 0 87 19.5t28 66.5q0 59 -44 89t-126 44l18 138q-241 20 -374.5 152t-133.5 376z" />
<glyph unicode="&#xe8;" horiz-adv-x="1347" d="M102 510q0 248 166 379t465 131q170 0 287 -53.5t173 -142.5t56 -197q0 -55 -10 -103h-715q2 -227 73 -346t265 -119q96 0 171 29t155 82l26 -39q-190 -156 -503 -156q-283 0 -446 136.5t-163 398.5zM481 1292q2 57 35 106.5t80 71.5q61 -63 161.5 -140t119.5 -91l77 -57 l-10 -23q-102 16 -238.5 54t-224.5 79zM524 578h344v153q0 125 -29.5 182.5t-117.5 57.5q-113 0 -154 -94.5t-43 -298.5z" />
<glyph unicode="&#xe9;" horiz-adv-x="1347" d="M102 510q0 248 166 379t465 131q170 0 287 -53.5t173 -142.5t56 -197q0 -55 -10 -103h-715q2 -227 73 -346t265 -119q96 0 171 29t155 82l26 -39q-190 -156 -503 -156q-283 0 -446 136.5t-163 398.5zM475 1182l78 57q18 14 118.5 91t162.5 140q47 -22 79.5 -71t34.5 -107 q-88 -41 -224 -78.5t-239 -54.5zM524 578h344v153q0 125 -29.5 182.5t-117.5 57.5q-113 0 -154 -94.5t-43 -298.5z" />
<glyph unicode="&#xea;" horiz-adv-x="1347" d="M102 510q0 248 166 379t465 131q170 0 287 -53.5t173 -142.5t56 -197q0 -55 -10 -103h-715q2 -227 73 -346t265 -119q96 0 171 29t155 82l26 -39q-190 -156 -503 -156q-283 0 -446 136.5t-163 398.5zM387 1190q147 121 275 280h106q120 -151 274 -280l-22 -31 q-150 51 -305 141q-156 -90 -305 -141zM524 578h344v153q0 125 -29.5 182.5t-117.5 57.5q-113 0 -154 -94.5t-43 -298.5z" />
<glyph unicode="&#xeb;" horiz-adv-x="1347" d="M102 510q0 248 166 379t465 131q170 0 287 -53.5t173 -142.5t56 -197q0 -55 -10 -103h-715q2 -227 73 -346t265 -119q96 0 171 29t155 82l26 -39q-190 -156 -503 -156q-283 0 -446 136.5t-163 398.5zM313 1323q0 63 44 106.5t114 43.5t114 -43.5t44 -106.5t-44 -106 t-114 -43t-114 43t-44 106zM524 578h344v153q0 125 -29.5 182.5t-117.5 57.5q-113 0 -154 -94.5t-43 -298.5zM801 1323q0 63 44 106.5t113 43.5q70 0 114 -43.5t44 -106.5t-44 -106t-114 -43q-69 0 -113 43t-44 106z" />
<glyph unicode="&#xec;" horiz-adv-x="757" d="M53 0v37l72 16q31 6 40 14.5t9 30.5v774q0 23 -9 31t-40 15l-72 16v37l492 61h39v-934q0 -23 9 -31t40 -14l72 -16v-37h-652zM63 1292q2 57 35 106.5t80 71.5q62 -63 162 -140t119 -91l78 -57l-11 -23q-102 16 -238 54t-225 79z" />
<glyph unicode="&#xed;" horiz-adv-x="757" d="M53 0v37l72 16q31 6 40 14.5t9 30.5v774q0 23 -9 31t-40 15l-72 16v37l492 61h39v-934q0 -23 9 -31t40 -14l72 -16v-37h-652zM221 1182l78 57q18 14 118.5 91t162.5 140q47 -22 79.5 -71t34.5 -107q-88 -41 -224 -78.5t-239 -54.5z" />
<glyph unicode="&#xee;" horiz-adv-x="757" d="M51 1190q147 121 275 280h106q121 -151 275 -280l-23 -31q-150 51 -305 141q-156 -90 -305 -141zM53 0v37l72 16q31 6 40 14.5t9 30.5v774q0 23 -9 31t-40 15l-72 16v37l492 61h39v-934q0 -23 9 -31t40 -14l72 -16v-37h-652z" />
<glyph unicode="&#xef;" horiz-adv-x="757" d="M-23 1323q0 63 44.5 106.5t113.5 43.5q70 0 114 -43.5t44 -106.5t-44 -106t-114 -43q-69 0 -113.5 43t-44.5 106zM53 0v37l72 16q31 6 40 14.5t9 30.5v774q0 23 -9 31t-40 15l-72 16v37l492 61h39v-934q0 -23 9 -31t40 -14l72 -16v-37h-652zM465 1323q0 63 44 106.5 t114 43.5t113.5 -43.5t43.5 -106.5t-44 -106t-113 -43q-70 0 -114 43t-44 106z" />
<glyph unicode="&#xf0;" horiz-adv-x="1239" d="M102 498q0 264 165 393t474 129q78 0 154 -16q-43 119 -129 210l-170 -98l-29 49l158 90q-111 102 -270 168l12 31q205 -37 381 -127l213 123l29 -49l-183 -107q219 -127 346 -329.5t127 -466.5t-164.5 -393.5t-474.5 -129.5q-309 0 -474 129t-165 394zM528 498 q0 -183 17.5 -281t62.5 -143t133 -45t133.5 45t62.5 143t17 281q0 182 -17 280.5t-62.5 143.5t-133.5 45t-133 -45t-62.5 -143.5t-17.5 -280.5z" />
<glyph unicode="&#xf1;" horiz-adv-x="1536" d="M49 0v37l72 16q31 6 40 14.5t9 30.5v774q0 23 -9 31t-40 15l-72 16v37l492 61h34v-166q78 63 191 108.5t250 45.5q190 0 272 -80t82 -240v-602q0 -22 9.5 -30.5t39.5 -14.5l72 -16v-37h-426q-55 0 -79.5 28.5t-24.5 86.5v622q0 92 -30 131t-100 39q-123 0 -251 -102v-707 q0 -23 9 -32t38 -15l69 -14v-37h-647zM381 1194q31 80 54.5 129t63.5 88t95 39q37 0 91 -18.5t192 -73.5l73 -29q18 -8 47 -8q25 0 47.5 10t36.5 29l49 61l25 -10q-31 -80 -54.5 -129t-63.5 -88t-95 -39q-37 0 -91 18.5t-192 73.5l-73 29q-18 8 -47 8q-25 0 -47.5 -10 t-36.5 -29l-49 -61z" />
<glyph unicode="&#xf2;" horiz-adv-x="1482" d="M102 498q0 264 165 393t474 129t474 -129t165 -393q0 -265 -164.5 -394t-474.5 -129q-309 0 -474 129t-165 394zM385 1292q2 57 35 106.5t80 71.5q61 -63 161.5 -140t118.5 -91l78 -57l-10 -23q-102 16 -238.5 54t-224.5 79zM528 498q0 -183 17.5 -281t62.5 -143t133 -45 t133.5 45t62.5 143t17 281q0 182 -17 280.5t-62.5 143.5t-133.5 45t-133 -45t-62.5 -143.5t-17.5 -280.5z" />
<glyph unicode="&#xf3;" horiz-adv-x="1482" d="M102 498q0 264 165 393t474 129t474 -129t165 -393q0 -265 -164.5 -394t-474.5 -129q-309 0 -474 129t-165 394zM528 498q0 -183 17.5 -281t62.5 -143t133 -45t133.5 45t62.5 143t17 281q0 182 -17 280.5t-62.5 143.5t-133.5 45t-133 -45t-62.5 -143.5t-17.5 -280.5z M625 1182l77 57q18 14 119 91t162 140q47 -22 80 -71t35 -107q-88 -41 -224.5 -78.5t-238.5 -54.5z" />
<glyph unicode="&#xf4;" horiz-adv-x="1482" d="M102 498q0 264 165 393t474 129t474 -129t165 -393q0 -265 -164.5 -394t-474.5 -129q-309 0 -474 129t-165 394zM414 1190q147 121 274 280h107q120 -151 274 -280l-22 -31q-150 51 -306 141q-156 -90 -305 -141zM528 498q0 -183 17.5 -281t62.5 -143t133 -45t133.5 45 t62.5 143t17 281q0 182 -17 280.5t-62.5 143.5t-133.5 45t-133 -45t-62.5 -143.5t-17.5 -280.5z" />
<glyph unicode="&#xf5;" horiz-adv-x="1482" d="M102 498q0 264 165 393t474 129t474 -129t165 -393q0 -265 -164.5 -394t-474.5 -129q-309 0 -474 129t-165 394zM354 1194q31 80 54.5 129t63.5 88t95 39q37 0 91.5 -18.5t191.5 -73.5l74 -29q18 -8 47 -8q25 0 47 10t37 29l49 61l24 -10q-31 -80 -54 -129t-63 -88 t-96 -39q-36 0 -90.5 18.5t-191.5 73.5l-74 29q-18 8 -47 8q-25 0 -47.5 -10t-36.5 -29l-49 -61zM528 498q0 -183 17.5 -281t62.5 -143t133 -45t133.5 45t62.5 143t17 281q0 182 -17 280.5t-62.5 143.5t-133.5 45t-133 -45t-62.5 -143.5t-17.5 -280.5z" />
<glyph unicode="&#xf6;" horiz-adv-x="1482" d="M102 498q0 264 165 393t474 129t474 -129t165 -393q0 -265 -164.5 -394t-474.5 -129q-309 0 -474 129t-165 394zM340 1323q0 63 44 106.5t114 43.5t113.5 -43.5t43.5 -106.5t-44 -106t-113 -43q-70 0 -114 43t-44 106zM528 498q0 -183 17.5 -281t62.5 -143t133 -45 t133.5 45t62.5 143t17 281q0 182 -17 280.5t-62.5 143.5t-133.5 45t-133 -45t-62.5 -143.5t-17.5 -280.5zM827 1323q0 63 44 106.5t114 43.5t114 -43.5t44 -106.5t-44 -106t-114 -43t-114 43t-44 106z" />
<glyph unicode="&#xf7;" horiz-adv-x="1171" d="M152 643v57h864v-57h-864zM414 319q0 70 50 119t122 49q71 0 121.5 -49t50.5 -119t-50.5 -118.5t-121.5 -48.5q-72 0 -122 49t-50 118zM414 1024q0 70 50 119t122 49t122 -49t50 -119t-50.5 -119t-121.5 -49q-72 0 -122 49t-50 119z" />
<glyph unicode="&#xf8;" horiz-adv-x="1482" d="M102 498q0 264 165 393t474 129q170 0 293 -39l78 115l47 -33l-67 -100q289 -117 288 -465q0 -265 -164.5 -394t-474.5 -129q-168 0 -295 37l-75 -112l-47 32l67 101q-289 117 -289 465zM528 498q1 -164 11 -246l389 571q-23 76 -67 110t-120 34q-88 0 -133 -45 t-62.5 -143.5t-17.5 -280.5zM555 172q20 -76 64.5 -109.5t121.5 -33.5q88 0 133.5 45t62.5 143t17 281q0 147 -12 245z" />
<glyph unicode="&#xf9;" horiz-adv-x="1527" d="M41 934v37l496 61h34v-774q0 -92 30 -131t99 -39q123 0 248 102v682q0 23 -9 31t-40 15l-72 16v37l496 61h35v-934q0 -23 9 -31t40 -14l72 -16v-37h-416q-59 0 -85 25.5t-26 80.5v23q-74 -63 -186.5 -108.5t-249.5 -45.5q-190 0 -272 80t-82 240v577q0 23 -9.5 31 t-39.5 15zM362 1292q2 57 35 106.5t80 71.5q62 -63 162 -140t119 -91l78 -57l-11 -23q-102 16 -238 54t-225 79z" />
<glyph unicode="&#xfa;" horiz-adv-x="1527" d="M41 934v37l496 61h34v-774q0 -92 30 -131t99 -39q123 0 248 102v682q0 23 -9 31t-40 15l-72 16v37l496 61h35v-934q0 -23 9 -31t40 -14l72 -16v-37h-416q-59 0 -85 25.5t-26 80.5v23q-74 -63 -186.5 -108.5t-249.5 -45.5q-190 0 -272 80t-82 240v577q0 23 -9.5 31 t-39.5 15zM586 1182l78 57q18 14 118.5 91t161.5 140q47 -22 80 -71t35 -107q-88 -41 -224.5 -78.5t-238.5 -54.5z" />
<glyph unicode="&#xfb;" horiz-adv-x="1527" d="M41 934v37l496 61h34v-774q0 -92 30 -131t99 -39q123 0 248 102v682q0 23 -9 31t-40 15l-72 16v37l496 61h35v-934q0 -23 9 -31t40 -14l72 -16v-37h-416q-59 0 -85 25.5t-26 80.5v23q-74 -63 -186.5 -108.5t-249.5 -45.5q-190 0 -272 80t-82 240v577q0 23 -9.5 31 t-39.5 15zM436 1190q147 121 275 280h106q121 -151 275 -280l-23 -31q-150 51 -305 141q-156 -90 -305 -141z" />
<glyph unicode="&#xfc;" horiz-adv-x="1527" d="M41 934v37l496 61h34v-774q0 -92 30 -131t99 -39q123 0 248 102v682q0 23 -9 31t-40 15l-72 16v37l496 61h35v-934q0 -23 9 -31t40 -14l72 -16v-37h-416q-59 0 -85 25.5t-26 80.5v23q-74 -63 -186.5 -108.5t-249.5 -45.5q-190 0 -272 80t-82 240v577q0 23 -9.5 31 t-39.5 15zM362 1323q0 63 44.5 106.5t113.5 43.5q70 0 114 -43.5t44 -106.5t-44 -106t-114 -43q-69 0 -113.5 43t-44.5 106zM850 1323q0 63 44 106.5t114 43.5t113.5 -43.5t43.5 -106.5t-44 -106t-113 -43q-70 0 -114 43t-44 106z" />
<glyph unicode="&#xfd;" horiz-adv-x="1191" d="M8 965v30h643v-30l-53 -13q-47 -10 -47 -39q0 -12 10 -32l238 -478l223 521q6 12 6 20q0 12 -27 14l-53 7v30h236v-30l-54 -9q-25 -4 -35 -10t-20 -28l-399 -918q-82 -190 -134.5 -279.5t-117 -137.5t-172.5 -75l-111 312q139 6 264 46t216 101l-494 942 q-10 18 -23.5 26.5t-33.5 12.5zM645 1182l78 57q18 14 118.5 91t162.5 140q47 -22 79.5 -71t34.5 -107q-88 -41 -224 -78.5t-239 -54.5z" />
<glyph unicode="&#xfe;" horiz-adv-x="1527" d="M49 -426l72 16q31 6 40 14.5t9 30.5v1700q0 23 -9 31t-40 14l-72 17v37l492 61h39v-577q137 102 352 102q227 0 360 -123t133 -387q0 -272 -133 -401t-360 -129t-352 133v-478q0 -23 9 -30.5t40 -14.5l71 -16v-37h-651v37zM580 182q47 -51 106 -82.5t125 -31.5 q74 0 116 45t59.5 140t17.5 257q0 227 -45.5 325.5t-157.5 98.5q-127 0 -221 -78v-674z" />
<glyph unicode="&#xff;" horiz-adv-x="1191" d="M8 965v30h643v-30l-53 -13q-47 -10 -47 -39q0 -12 10 -32l238 -478l223 521q6 12 6 20q0 12 -27 14l-53 7v30h236v-30l-54 -9q-25 -4 -35 -10t-20 -28l-399 -918q-82 -190 -134.5 -279.5t-117 -137.5t-172.5 -75l-111 312q139 6 264 46t216 101l-494 942 q-10 18 -23.5 26.5t-33.5 12.5zM276 1323q0 63 44.5 106.5t113.5 43.5q70 0 114 -43.5t44 -106.5t-44 -106t-114 -43q-69 0 -113.5 43t-44.5 106zM764 1323q0 63 44 106.5t114 43.5t113.5 -43.5t43.5 -106.5t-44 -106t-113 -43q-70 0 -114 43t-44 106z" />
<glyph unicode="&#x100;" horiz-adv-x="1572" d="M37 0v41l76 8q25 2 35 12.5t22 36.5l567 1358h66l600 -1358q12 -27 22.5 -37t34.5 -12l76 -8v-41h-676v41l88 8q29 4 29 23q0 10 -6 24l-135 299h-476l-122 -299q-6 -14 -7 -24q0 -18 29 -23l88 -8v-41h-311zM377 1593v49h778v-49h-778zM385 457h424l-221 489z" />
<glyph unicode="&#x101;" horiz-adv-x="1318" d="M78 227q0 127 74.5 199t218 102.5t381.5 36.5v150q0 115 -45 165t-158 50q-94 0 -175 -25.5t-165 -77.5l-27 39q98 70 236.5 112t310.5 42q231 0 329.5 -91t98.5 -263v-568q0 -23 9.5 -31t39.5 -14l72 -16v-37h-422q-57 0 -80.5 23.5t-23.5 78.5v11q-137 -133 -392 -133 q-133 0 -207.5 60t-74.5 187zM270 1196v49h779v-49h-779zM475 256q0 -78 27.5 -112.5t87.5 -34.5q88 -1 162 69v332q-115 -8 -174.5 -36t-81 -79t-21.5 -139z" />
<glyph unicode="&#x102;" horiz-adv-x="1572" d="M37 0v41l76 8q25 2 35 12.5t22 36.5l567 1358h66l600 -1358q12 -27 22.5 -37t34.5 -12l76 -8v-41h-676v41l88 8q29 4 29 23q0 10 -6 24l-135 299h-476l-122 -299q-6 -14 -7 -24q0 -18 29 -23l88 -8v-41h-311zM385 457h424l-221 489zM483 1870h41q20 -82 72.5 -119 t169.5 -37t169 37t73 119h41q-4 -147 -74 -230.5t-209 -83.5t-209 83t-74 231z" />
<glyph unicode="&#x103;" horiz-adv-x="1318" d="M78 227q0 127 74.5 199t218 102.5t381.5 36.5v150q0 115 -45 165t-158 50q-94 0 -175 -25.5t-165 -77.5l-27 39q98 70 236.5 112t310.5 42q231 0 329.5 -91t98.5 -263v-568q0 -23 9.5 -31t39.5 -14l72 -16v-37h-422q-57 0 -80.5 23.5t-23.5 78.5v11q-137 -133 -392 -133 q-133 0 -207.5 60t-74.5 187zM377 1473h41q20 -82 72.5 -119t168.5 -37q117 0 169.5 37t72.5 119h41q-4 -147 -73.5 -230.5t-209.5 -83.5q-139 0 -208.5 83t-73.5 231zM475 256q0 -78 27.5 -112.5t87.5 -34.5q88 -1 162 69v332q-115 -8 -174.5 -36t-81 -79t-21.5 -139z" />
<glyph unicode="&#x104;" horiz-adv-x="1572" d="M37 0v41l76 8q25 2 35 12.5t22 36.5l567 1358h66l600 -1358q12 -27 22.5 -37t34.5 -12l76 -8v-41h-240q-68 -33 -96.5 -85t-28.5 -132q0 -63 28 -92t91 -29q49 0 109 47l14 -22q-94 -107 -225 -107q-106 0 -161.5 39t-55.5 113q0 98 74.5 165.5t195.5 102.5h-381v41l88 8 q29 4 29 23q0 10 -6 24l-135 299h-476l-122 -299q-6 -14 -7 -24q0 -18 29 -23l88 -8v-41h-311zM385 457h424l-221 489z" />
<glyph unicode="&#x105;" horiz-adv-x="1318" d="M78 227q0 127 74.5 199t218 102.5t381.5 36.5v150q0 115 -45 165t-158 50q-94 0 -175 -25.5t-165 -77.5l-27 39q98 70 236.5 112t310.5 42q231 0 329.5 -91t98.5 -263v-568q0 -23 9.5 -31t39.5 -14l72 -16v-37h-178q-68 -33 -96.5 -85t-28.5 -132q0 -63 27.5 -92 t91.5 -29q49 0 108 47l15 -22q-95 -107 -226 -107q-106 0 -161.5 39t-55.5 113q0 98 75 165.5t195 102.5h-188q-57 0 -80.5 23.5t-23.5 78.5v11q-137 -133 -392 -133q-133 0 -207.5 60t-74.5 187zM475 256q0 -78 27.5 -112.5t87.5 -34.5q88 -1 162 69v332 q-115 -8 -174.5 -36t-81 -79t-21.5 -139z" />
<glyph unicode="&#x106;" horiz-adv-x="1544" d="M115 737q0 371 220 546t576 175q143 0 282.5 -26.5t219.5 -65.5l-29 -352h-57q-57 174 -154.5 279.5t-259.5 105.5q-186 0 -267 -152.5t-81 -455.5q0 -358 104.5 -535.5t366.5 -177.5q113 0 204 37t173 102l41 -45q-90 -84 -234.5 -140.5t-318.5 -56.5q-344 0 -565 181.5 t-221 580.5zM739 1579l78 57q18 14 118.5 91t162.5 141q47 -23 79.5 -72t34.5 -106q-88 -41 -224 -79t-238 -55z" />
<glyph unicode="&#x107;" horiz-adv-x="1302" d="M102 510q0 254 168 382t496 128q256 0 420 -82l-25 -268h-39q-43 152 -113.5 224.5t-205.5 72.5q-150 0 -212.5 -104.5t-62.5 -309.5q0 -170 27 -274.5t96.5 -158.5t196.5 -54q96 0 176 27.5t158 80.5l26 -39q-96 -74 -216 -117t-279 -43q-289 0 -450 133.5t-161 401.5z M659 1182l78 57q18 14 118.5 91t162.5 140q47 -22 79.5 -71t35.5 -107q-88 -41 -224.5 -78.5t-238.5 -54.5z" />
<glyph unicode="&#x108;" horiz-adv-x="1544" d="M115 737q0 371 220 546t576 175q143 0 282.5 -26.5t219.5 -65.5l-29 -352h-57q-57 174 -154.5 279.5t-259.5 105.5q-186 0 -267 -152.5t-81 -455.5q0 -358 104.5 -535.5t366.5 -177.5q113 0 204 37t173 102l41 -45q-90 -84 -234.5 -140.5t-318.5 -56.5q-344 0 -565 181.5 t-221 580.5zM567 1587q147 121 275 281h106q121 -152 275 -281l-23 -31q-150 51 -305 142q-156 -90 -305 -142z" />
<glyph unicode="&#x109;" horiz-adv-x="1302" d="M102 510q0 254 168 382t496 128q256 0 420 -82l-25 -268h-39q-43 152 -113.5 224.5t-205.5 72.5q-150 0 -212.5 -104.5t-62.5 -309.5q0 -170 27 -274.5t96.5 -158.5t196.5 -54q96 0 176 27.5t158 80.5l26 -39q-96 -74 -216 -117t-279 -43q-289 0 -450 133.5t-161 401.5z M406 1190q147 121 274 280h106q121 -151 275 -280l-23 -31q-150 51 -305 141q-156 -90 -305 -141z" />
<glyph unicode="&#x10a;" horiz-adv-x="1544" d="M115 737q0 371 220 546t576 175q143 0 282.5 -26.5t219.5 -65.5l-29 -352h-57q-57 174 -154.5 279.5t-259.5 105.5q-186 0 -267 -152.5t-81 -455.5q0 -358 104.5 -535.5t366.5 -177.5q113 0 204 37t173 102l41 -45q-90 -84 -234.5 -140.5t-318.5 -56.5q-344 0 -565 181.5 t-221 580.5zM717 1716q0 76 49 115t129 39t129 -39t49 -115t-49 -114.5t-129 -38.5t-129 38.5t-49 114.5z" />
<glyph unicode="&#x10b;" horiz-adv-x="1302" d="M102 510q0 254 168 382t496 128q256 0 420 -82l-25 -268h-39q-43 152 -113.5 224.5t-205.5 72.5q-150 0 -212.5 -104.5t-62.5 -309.5q0 -170 27 -274.5t96.5 -158.5t196.5 -54q96 0 176 27.5t158 80.5l26 -39q-96 -74 -216 -117t-279 -43q-289 0 -450 133.5t-161 401.5z M555 1319q0 76 49 115t129 39t129 -39t49 -115t-49 -115t-129 -39t-129 39t-49 115z" />
<glyph unicode="&#x10c;" horiz-adv-x="1544" d="M115 737q0 371 220 546t576 175q143 0 282.5 -26.5t219.5 -65.5l-29 -352h-57q-57 174 -154.5 279.5t-259.5 105.5q-186 0 -267 -152.5t-81 -455.5q0 -358 104.5 -535.5t366.5 -177.5q113 0 204 37t173 102l41 -45q-90 -84 -234.5 -140.5t-318.5 -56.5q-344 0 -565 181.5 t-221 580.5zM567 1837l23 31q150 -51 305 -142q156 90 305 142l23 -31q-154 -129 -275 -281h-106q-128 160 -275 281z" />
<glyph unicode="&#x10d;" horiz-adv-x="1302" d="M102 510q0 254 168 382t496 128q256 0 420 -82l-25 -268h-39q-43 152 -113.5 224.5t-205.5 72.5q-150 0 -212.5 -104.5t-62.5 -309.5q0 -170 27 -274.5t96.5 -158.5t196.5 -54q96 0 176 27.5t158 80.5l26 -39q-96 -74 -216 -117t-279 -43q-289 0 -450 133.5t-161 401.5z M406 1440l22 30q150 -51 305 -141q156 90 305 141l23 -30q-154 -129 -275 -281h-106q-127 160 -274 281z" />
<glyph unicode="&#x10e;" horiz-adv-x="1675" d="M53 0v41l76 16q31 6 40 14.5t9 30.5v1229q0 23 -9 31t-40 14l-76 17v41h627q430 0 655.5 -162t225.5 -555t-225.5 -555t-655.5 -162h-627zM510 1837l22 31q150 -51 306 -142q156 90 305 142l22 -31q-154 -129 -274 -281h-107q-127 160 -274 281zM596 61h84 q170 0 262 60.5t129 200t37 395.5t-37 395t-129 199.5t-262 60.5h-84v-1311z" />
<glyph unicode="&#x10f;" horiz-adv-x="1916" d="M102 508q0 264 133.5 388t360.5 124q123 0 206 -28.5t146 -73.5v417q0 23 -9 31t-40 14l-72 17v37l492 61h39v-1397q0 -23 9 -31t40 -14l72 -16v-37h-422q-56 0 -80.5 28.5t-24.5 86.5q-131 -139 -356 -140q-225 0 -359.5 129t-134.5 404zM524 508q0 -162 17.5 -257 t59.5 -141.5t116 -46.5q120 0 231 115v678q-98 78 -221 78q-113 0 -158 -99.5t-45 -326.5zM1528 1294q0 66 44 111t120 45q80 0 126 -44t46 -128q0 -115 -65.5 -224.5t-168.5 -187.5l-37 35q68 70 93.5 123t27.5 123q-11 -2 -31 -2q-78 0 -116.5 42t-38.5 107z" />
<glyph unicode="&#x110;" horiz-adv-x="1675" d="M53 0v41l76 16q31 6 40 14.5t9 30.5v562h-125v57h125v610q0 23 -9 31t-40 14l-76 17v41h627q430 0 655.5 -162t225.5 -555t-225.5 -555t-655.5 -162h-627zM596 61h84q170 0 262 60.5t129 200t37 395.5t-37 395t-129 199.5t-262 60.5h-84v-651h281v-57h-281v-603z" />
<glyph unicode="&#x111;" horiz-adv-x="1527" d="M102 508q0 264 133.5 388t360.5 124q123 0 206 -28.5t146 -73.5v266h-330v49h330v102q0 23 -9 31t-40 14l-72 17v37l492 61h39v-262h121v-49h-121v-1086q0 -23 9 -31t40 -14l72 -16v-37h-422q-55 0 -80 28.5t-25 86.5q-131 -139 -356 -140q-225 0 -359.5 129t-134.5 404z M524 508q0 -162 17.5 -257t59.5 -141.5t116 -46.5q120 0 231 115v678q-98 78 -221 78q-113 0 -158 -99.5t-45 -326.5z" />
<glyph unicode="&#x112;" horiz-adv-x="1474" d="M53 0v41l76 16q31 6 40 14.5t9 30.5v1229q0 23 -9 31t-40 14l-76 17v41h1262v-400h-51q-43 133 -81 201t-105.5 102.5t-190.5 34.5h-291v-608h528v-62h-528v-641h311q121 0 190.5 37t109.5 106.5t83 203.5h53v-408h-1290zM389 1593v49h778v-49h-778z" />
<glyph unicode="&#x113;" horiz-adv-x="1347" d="M102 510q0 248 166 379t465 131q170 0 287 -53.5t173 -142.5t56 -197q0 -55 -10 -103h-715q2 -227 73 -346t265 -119q96 0 171 29t155 82l26 -39q-190 -156 -503 -156q-283 0 -446 136.5t-163 398.5zM326 1196v49h778v-49h-778zM524 578h344v153q0 125 -29.5 182.5 t-117.5 57.5q-113 0 -154 -94.5t-43 -298.5z" />
<glyph unicode="&#x114;" horiz-adv-x="1474" d="M53 0v41l76 16q31 6 40 14.5t9 30.5v1229q0 23 -9 31t-40 14l-76 17v41h1262v-400h-51q-43 133 -81 201t-105.5 102.5t-190.5 34.5h-291v-608h528v-62h-528v-641h311q121 0 190.5 37t109.5 106.5t83 203.5h53v-408h-1290zM496 1870h41q20 -82 72.5 -119t168.5 -37 q117 0 169 37t73 119h41q-4 -147 -73.5 -230.5t-209.5 -83.5q-139 0 -208.5 83t-73.5 231z" />
<glyph unicode="&#x115;" horiz-adv-x="1347" d="M102 510q0 248 166 379t465 131q170 0 287 -53.5t173 -142.5t56 -197q0 -55 -10 -103h-715q2 -227 73 -346t265 -119q96 0 171 29t155 82l26 -39q-190 -156 -503 -156q-283 0 -446 136.5t-163 398.5zM432 1473h41q20 -82 72.5 -119t169.5 -37t169 37t72 119h41 q-4 -147 -73.5 -230.5t-208.5 -83.5q-140 0 -209.5 83t-73.5 231zM524 578h344v153q0 125 -29.5 182.5t-117.5 57.5q-113 0 -154 -94.5t-43 -298.5z" />
<glyph unicode="&#x116;" horiz-adv-x="1474" d="M53 0v41l76 16q31 6 40 14.5t9 30.5v1229q0 23 -9 31t-40 14l-76 17v41h1262v-400h-51q-43 133 -81 201t-105.5 102.5t-190.5 34.5h-291v-608h528v-62h-528v-641h311q121 0 190.5 37t109.5 106.5t83 203.5h53v-408h-1290zM600 1716q0 76 49 115t129 39t129 -39t49 -115 t-49 -114.5t-129 -38.5t-129 38.5t-49 114.5z" />
<glyph unicode="&#x117;" horiz-adv-x="1347" d="M102 510q0 248 166 379t465 131q170 0 287 -53.5t173 -142.5t56 -197q0 -55 -10 -103h-715q2 -227 73 -346t265 -119q96 0 171 29t155 82l26 -39q-190 -156 -503 -156q-283 0 -446 136.5t-163 398.5zM524 578h344v153q0 125 -29.5 182.5t-117.5 57.5q-113 0 -154 -94.5 t-43 -298.5zM537 1319q0 76 49 115t129 39t129 -39t49 -115t-49 -115t-129 -39t-129 39t-49 115z" />
<glyph unicode="&#x118;" horiz-adv-x="1474" d="M53 0v41l76 16q31 6 40 14.5t9 30.5v1229q0 23 -9 31t-40 14l-76 17v41h1262v-400h-51q-43 133 -81 201t-105.5 102.5t-190.5 34.5h-291v-608h528v-62h-528v-641h311q121 0 190.5 37t109.5 106.5t83 203.5h53v-408h-157q-68 -33 -96.5 -85t-28.5 -132q0 -63 27.5 -92 t91.5 -29q49 0 108 47l15 -22q-94 -106 -226 -107q-106 0 -161.5 39t-55.5 113q0 98 75 165.5t195 102.5h-1077z" />
<glyph unicode="&#x119;" horiz-adv-x="1347" d="M102 510q0 248 166 379t465 131q170 0 287 -53.5t173 -142.5t56 -197q0 -55 -10 -103h-715q2 -227 73 -346t265 -119q96 0 171 29t155 82l26 -39q-123 -102 -294 -135q-63 -33 -90 -85t-27 -128q0 -63 27.5 -92t91.5 -29q49 0 108 47l14 -22q-94 -107 -225 -107 q-106 0 -161.5 39t-55.5 113q0 86 57.5 147.5t153.5 100.5q-66 -4 -102 -5q-283 0 -446 136.5t-163 398.5zM524 578h344v153q0 125 -29.5 182.5t-117.5 57.5q-113 0 -154 -94.5t-43 -298.5z" />
<glyph unicode="&#x11a;" horiz-adv-x="1474" d="M53 0v41l76 16q31 6 40 14.5t9 30.5v1229q0 23 -9 31t-40 14l-76 17v41h1262v-400h-51q-43 133 -81 201t-105.5 102.5t-190.5 34.5h-291v-608h528v-62h-528v-641h311q121 0 190.5 37t109.5 106.5t83 203.5h53v-408h-1290zM492 1837l22 31q150 -51 305 -142 q156 90 305 142l23 -31q-154 -129 -275 -281h-106q-127 160 -274 281z" />
<glyph unicode="&#x11b;" horiz-adv-x="1347" d="M102 510q0 248 166 379t465 131q170 0 287 -53.5t173 -142.5t56 -197q0 -55 -10 -103h-715q2 -227 73 -346t265 -119q96 0 171 29t155 82l26 -39q-190 -156 -503 -156q-283 0 -446 136.5t-163 398.5zM387 1440l23 30q150 -51 305 -141q156 90 305 141l22 -30 q-154 -129 -274 -281h-106q-128 160 -275 281zM524 578h344v153q0 125 -29.5 182.5t-117.5 57.5q-113 0 -154 -94.5t-43 -298.5z" />
<glyph unicode="&#x11c;" horiz-adv-x="1617" d="M115 737q0 371 223 546t588 175q152 0 294 -26.5t222 -65.5l-29 -352h-57q-57 174 -156.5 279.5t-271.5 105.5q-195 0 -279 -152.5t-84 -455.5q0 -263 47 -421.5t154.5 -232.5t290.5 -74h65v504h-202v62h559v-539q-45 -8 -107.5 -23.5t-95.5 -23.5q-135 -35 -216 -51.5 t-151 -16.5q-219 0 -397 75t-287.5 245t-109.5 442zM584 1587q147 121 274 281h107q120 -152 274 -281l-22 -31q-150 51 -306 142q-156 -90 -305 -142z" />
<glyph unicode="&#x11d;" horiz-adv-x="1417" d="M119 -223q0 86 67.5 133t178.5 61q-233 55 -234 219q0 178 217 218q-193 84 -192 278q0 178 140 254t400 76q125 -4 217 -21q59 90 166 148.5t256 58.5l-49 -235h-22l-52 14q-82 23 -143 23q-57 0 -92 -23q260 -74 260 -295q0 -178 -141.5 -257t-399.5 -79 q-145 0 -252 27q-63 -4 -111 -21.5t-48 -46.5q0 -31 26.5 -46t84 -24.5t190.5 -21.5l348 -33q147 -14 234 -46t127 -92t40 -159q0 -131 -95 -216t-244.5 -124t-319.5 -39q-244 0 -400.5 67t-156.5 202zM381 1190q147 121 274 280h107q120 -151 274 -280l-22 -31 q-150 51 -305 141q-156 -90 -306 -141zM399 -186q0 -127 61.5 -188.5t229.5 -61.5q197 0 305.5 48t108.5 142q0 53 -21.5 81t-70.5 43.5t-146 25.5l-288 33q-109 14 -152 22q-27 -57 -27 -145zM532 686q0 -147 34 -216t130 -69q97 0 130.5 69t33.5 216q0 141 -33.5 210 t-130.5 69q-96 0 -130 -69t-34 -210z" />
<glyph unicode="&#x11e;" horiz-adv-x="1617" d="M115 737q0 371 223 546t588 175q152 0 294 -26.5t222 -65.5l-29 -352h-57q-57 174 -156.5 279.5t-271.5 105.5q-195 0 -279 -152.5t-84 -455.5q0 -263 47 -421.5t154.5 -232.5t290.5 -74h65v504h-202v62h559v-539q-45 -8 -107.5 -23.5t-95.5 -23.5q-135 -35 -216 -51.5 t-151 -16.5q-219 0 -397 75t-287.5 245t-109.5 442zM649 1870h41q20 -82 72.5 -119t169.5 -37t169 37t73 119h40q-4 -147 -73.5 -230.5t-208.5 -83.5t-209 83t-74 231z" />
<glyph unicode="&#x11f;" horiz-adv-x="1417" d="M119 -223q0 86 67.5 133t178.5 61q-233 55 -234 219q0 178 217 218q-193 84 -192 278q0 178 140 254t400 76q125 -4 217 -21q59 90 166 148.5t256 58.5l-49 -235h-22l-52 14q-82 23 -143 23q-57 0 -92 -23q260 -74 260 -295q0 -178 -141.5 -257t-399.5 -79 q-145 0 -252 27q-63 -4 -111 -21.5t-48 -46.5q0 -31 26.5 -46t84 -24.5t190.5 -21.5l348 -33q147 -14 234 -46t127 -92t40 -159q0 -131 -95 -216t-244.5 -124t-319.5 -39q-244 0 -400.5 67t-156.5 202zM399 -186q0 -127 61.5 -188.5t229.5 -61.5q197 0 305.5 48t108.5 142 q0 53 -21.5 81t-70.5 43.5t-146 25.5l-288 33q-109 14 -152 22q-27 -57 -27 -145zM426 1473h41q20 -82 72.5 -119t169.5 -37t169 37t72 119h41q-4 -147 -73.5 -230.5t-208.5 -83.5q-140 0 -209.5 83t-73.5 231zM532 686q0 -147 34 -216t130 -69q97 0 130.5 69t33.5 216 q0 141 -33.5 210t-130.5 69q-96 0 -130 -69t-34 -210z" />
<glyph unicode="&#x120;" horiz-adv-x="1617" d="M115 737q0 371 223 546t588 175q152 0 294 -26.5t222 -65.5l-29 -352h-57q-57 174 -156.5 279.5t-271.5 105.5q-195 0 -279 -152.5t-84 -455.5q0 -263 47 -421.5t154.5 -232.5t290.5 -74h65v504h-202v62h559v-539q-45 -8 -107.5 -23.5t-95.5 -23.5q-135 -35 -216 -51.5 t-151 -16.5q-219 0 -397 75t-287.5 245t-109.5 442zM733 1716q0 76 49 115t129 39t129.5 -39t49.5 -115t-49.5 -114.5t-129.5 -38.5t-129 38.5t-49 114.5z" />
<glyph unicode="&#x121;" horiz-adv-x="1417" d="M119 -223q0 86 67.5 133t178.5 61q-233 55 -234 219q0 178 217 218q-193 84 -192 278q0 178 140 254t400 76q125 -4 217 -21q59 90 166 148.5t256 58.5l-49 -235h-22l-52 14q-82 23 -143 23q-57 0 -92 -23q260 -74 260 -295q0 -178 -141.5 -257t-399.5 -79 q-145 0 -252 27q-63 -4 -111 -21.5t-48 -46.5q0 -31 26.5 -46t84 -24.5t190.5 -21.5l348 -33q147 -14 234 -46t127 -92t40 -159q0 -131 -95 -216t-244.5 -124t-319.5 -39q-244 0 -400.5 67t-156.5 202zM399 -186q0 -127 61.5 -188.5t229.5 -61.5q197 0 305.5 48t108.5 142 q0 53 -21.5 81t-70.5 43.5t-146 25.5l-288 33q-109 14 -152 22q-27 -57 -27 -145zM530 1319q0 76 49.5 115t129.5 39t129 -39t49 -115t-49.5 -115t-128.5 -39q-80 0 -129.5 39t-49.5 115zM532 686q0 -147 34 -216t130 -69q97 0 130.5 69t33.5 216q0 141 -33.5 210t-130.5 69 q-96 0 -130 -69t-34 -210z" />
<glyph unicode="&#x122;" horiz-adv-x="1617" d="M115 737q0 371 223 546t588 175q152 0 294 -26.5t222 -65.5l-29 -352h-57q-57 174 -156.5 279.5t-271.5 105.5q-195 0 -279 -152.5t-84 -455.5q0 -263 47 -421.5t154.5 -232.5t290.5 -74h65v504h-202v62h559v-539q-45 -8 -107.5 -23.5t-95.5 -23.5q-135 -35 -216 -51.5 t-151 -16.5q-219 0 -397 75t-287.5 245t-109.5 442zM764 -274q0 66 44 110.5t120 44.5q80 0 126 -44t46 -128q0 -115 -65.5 -224.5t-168.5 -186.5l-37 34q68 70 93.5 123t27.5 123q-10 -2 -30 -2q-78 0 -117 42t-39 108z" />
<glyph unicode="&#x123;" horiz-adv-x="1417" d="M119 -223q0 86 67.5 133t178.5 61q-233 55 -234 219q0 178 217 218q-193 84 -192 278q0 178 140 254t400 76q125 -4 217 -21q59 90 166 148.5t256 58.5l-49 -235h-22l-52 14q-82 23 -143 23q-57 0 -92 -23q260 -74 260 -295q0 -178 -141.5 -257t-399.5 -79 q-145 0 -252 27q-63 -4 -111 -21.5t-48 -46.5q0 -31 26.5 -46t84 -24.5t190.5 -21.5l348 -33q147 -14 234 -46t127 -92t40 -159q0 -131 -95 -216t-244.5 -124t-319.5 -39q-244 0 -400.5 67t-156.5 202zM399 -186q0 -127 61.5 -188.5t229.5 -61.5q197 0 305.5 48t108.5 142 q0 53 -21.5 81t-70.5 43.5t-146 25.5l-288 33q-109 14 -152 22q-27 -57 -27 -145zM532 686q0 -147 34 -216t130 -69q97 0 130.5 69t33.5 216q0 141 -33.5 210t-130.5 69q-96 0 -130 -69t-34 -210zM541 1337q0 115 65.5 224.5t167.5 187.5l37 -35q-68 -70 -93.5 -123 t-27.5 -123q11 2 31 2q78 0 117 -42t39 -107q0 -66 -44.5 -111t-119.5 -45q-80 0 -126 44t-46 128z" />
<glyph unicode="&#x124;" horiz-adv-x="1728" d="M53 0v41l76 16q31 6 40 14.5t9 30.5v1229q0 23 -9 31t-40 14l-76 17v41h664v-41l-74 -17q-29 -4 -38 -12t-9 -31v-569h537v569q0 23 -9.5 31t-38.5 12l-73 17v41h663v-41l-76 -17q-31 -6 -40 -14t-9 -31v-1229q0 -23 9.5 -31t39.5 -14l76 -16v-41h-663v41l73 16 q29 6 38.5 13.5t9.5 29.5v602h-537v-602q0 -23 9 -30t38 -13l74 -16v-41h-664zM537 1628q147 121 274 281h107q120 -152 274 -281l-23 -31q-150 51 -305 142q-156 -90 -305 -142z" />
<glyph unicode="&#x125;" horiz-adv-x="1536" d="M49 0v37l72 16q31 6 40 14.5t9 30.5v1237q0 23 -9 31t-40 14l-72 17v37l492 61h39v-627q78 63 188.5 107.5t247.5 44.5q190 0 272 -80t82 -240v-602q0 -22 9.5 -30.5t39.5 -14.5l72 -16v-37h-426q-55 0 -79.5 28.5t-24.5 86.5v622q0 92 -30 131t-100 39q-123 0 -251 -102 v-707q0 -23 9 -32t38 -15l69 -14v-37h-647zM55 1628q147 121 275 281h106q121 -152 275 -281l-23 -31q-150 51 -305 142q-156 -90 -305 -142z" />
<glyph unicode="&#x126;" horiz-adv-x="1728" d="M53 0v41l76 16q31 6 40 14.5t9 30.5v979h-125v49h125v201q0 23 -9 31t-40 14l-76 17v41h664v-41l-74 -17q-29 -4 -38 -12t-9 -31v-203h537v203q0 23 -9.5 31t-38.5 12l-73 17v41h663v-41l-76 -17q-31 -6 -40 -14t-9 -31v-201h125v-49h-125v-979q0 -23 9.5 -31t39.5 -14 l76 -16v-41h-663v41l73 16q29 6 38.5 13.5t9.5 29.5v602h-537v-602q0 -23 9 -30t38 -13l74 -16v-41h-664zM596 764h537v317h-537v-317z" />
<glyph unicode="&#x127;" horiz-adv-x="1536" d="M49 0v37l72 16q31 6 40 14.5t9 30.5v1086h-121v49h121v102q0 23 -9 31t-40 14l-72 17v37l492 61h39v-262h329v-49h-329v-316q78 63 188.5 107.5t247.5 44.5q190 0 272 -80t82 -240v-602q0 -23 9.5 -31t39.5 -14l72 -16v-37h-426q-55 0 -79.5 28.5t-24.5 86.5v622 q0 92 -30 131t-100 39q-123 0 -251 -102v-707q0 -23 9 -32t38 -15l69 -14v-37h-647z" />
<glyph unicode="&#x128;" horiz-adv-x="790" d="M8 1591q31 80 54.5 129t63.5 88t95 39q37 0 91.5 -18.5t191.5 -73.5l74 -29q18 -8 47 -8q25 0 47 10.5t37 28.5l49 62l24 -11q-31 -80 -54 -129t-63 -88t-96 -39q-37 0 -91 18.5t-191 74.5l-74 28q-18 8 -47 8q-25 0 -47.5 -10t-36.5 -29l-49 -61zM61 0v41l76 16 q31 6 40 14.5t9 30.5v1229q0 23 -9 31t-40 14l-76 17v41h668v-41l-76 -17q-31 -6 -40 -14t-9 -31v-1229q0 -23 9.5 -31t39.5 -14l76 -16v-41h-668z" />
<glyph unicode="&#x129;" horiz-adv-x="757" d="M-8 1194q31 80 54.5 129t63.5 88t95 39q37 0 91 -18.5t191 -73.5l74 -29q18 -8 47 -8q25 0 47.5 10t36.5 29l49 61l25 -10q-31 -80 -54.5 -129t-63.5 -88t-95 -39q-37 0 -91 18.5t-192 73.5l-73 29q-18 8 -47 8q-25 0 -47.5 -10t-36.5 -29l-50 -61zM53 0v37l72 16 q31 6 40 14.5t9 30.5v774q0 23 -9 31t-40 15l-72 16v37l492 61h39v-934q0 -23 9 -31t40 -14l72 -16v-37h-652z" />
<glyph unicode="&#x12a;" horiz-adv-x="790" d="M6 1593v49h778v-49h-778zM61 0v41l76 16q31 6 40 14.5t9 30.5v1229q0 23 -9 31t-40 14l-76 17v41h668v-41l-76 -17q-31 -6 -40 -14t-9 -31v-1229q0 -23 9.5 -31t39.5 -14l76 -16v-41h-668z" />
<glyph unicode="&#x12b;" horiz-adv-x="757" d="M-10 1196v49h778v-49h-778zM53 0v37l72 16q31 6 40 14.5t9 30.5v774q0 23 -9 31t-40 15l-72 16v37l492 61h39v-934q0 -23 9 -31t40 -14l72 -16v-37h-652z" />
<glyph unicode="&#x12c;" horiz-adv-x="790" d="M61 0v41l76 16q31 6 40 14.5t9 30.5v1229q0 23 -9 31t-40 14l-76 17v41h668v-41l-76 -17q-31 -6 -40 -14t-9 -31v-1229q0 -23 9.5 -31t39.5 -14l76 -16v-41h-668zM113 1870h41q20 -82 72.5 -119t168.5 -37q117 0 169 37t73 119h41q-4 -147 -73.5 -230.5t-209.5 -83.5 q-139 0 -208.5 83t-73.5 231z" />
<glyph unicode="&#x12d;" horiz-adv-x="757" d="M53 0v37l72 16q31 6 40 14.5t9 30.5v774q0 23 -9 31t-40 15l-72 16v37l492 61h39v-934q0 -23 9 -31t40 -14l72 -16v-37h-652zM96 1473h41q20 -82 72.5 -119t169.5 -37t169 37t73 119h41q-4 -147 -74 -230.5t-209 -83.5t-209 83t-74 231z" />
<glyph unicode="&#x12e;" horiz-adv-x="790" d="M61 0v41l76 16q31 6 40 14.5t9 30.5v1229q0 23 -9 31t-40 14l-76 17v41h668v-41l-76 -17q-31 -6 -40 -14t-9 -31v-1229q0 -23 9.5 -31t39.5 -14l76 -16v-41h-240q-68 -33 -96 -85t-28 -132q0 -63 27.5 -92t90.5 -29q49 0 109 47l14 -22q-94 -107 -225 -107 q-106 0 -161.5 39t-55.5 113q0 98 74.5 165.5t195.5 102.5h-373z" />
<glyph unicode="&#x12f;" horiz-adv-x="757" d="M53 0v37l72 16q31 6 40 14.5t9 30.5v774q0 23 -9 31t-40 15l-72 16v37l492 61h39v-934q0 -23 9 -31t40 -14l72 -16v-37h-242q-68 -33 -96.5 -85t-28.5 -132q0 -63 27.5 -92t91.5 -29q49 0 108 47l15 -22q-95 -107 -226 -107q-106 0 -161.5 39t-55.5 113q0 98 75 165.5 t196 102.5h-355zM168 1323q0 84 57.5 128t153.5 44t153.5 -44t57.5 -128t-57.5 -128t-153.5 -44t-153.5 44t-57.5 128z" />
<glyph unicode="&#x130;" horiz-adv-x="790" d="M61 0v41l76 16q31 6 40 14.5t9 30.5v1229q0 23 -9 31t-40 14l-76 17v41h668v-41l-76 -17q-31 -6 -40 -14t-9 -31v-1229q0 -23 9.5 -31t39.5 -14l76 -16v-41h-668zM217 1716q0 76 49 115t129 39t129 -39t49 -115t-49 -114.5t-129 -38.5t-129 38.5t-49 114.5z" />
<glyph unicode="&#x131;" horiz-adv-x="757" d="M53 0v37l72 16q31 6 40 14.5t9 30.5v774q0 23 -9 31t-40 15l-72 16v37l492 61h39v-934q0 -23 9 -31t40 -14l72 -16v-37h-652z" />
<glyph unicode="&#x132;" horiz-adv-x="2064" d="M61 0v41l76 16q31 6 40 14.5t9 30.5v1229q0 23 -9 31t-40 14l-76 17v41h668v-41l-76 -17q-31 -6 -40 -14t-9 -31v-1229q0 -23 9.5 -31t39.5 -14l76 -16v-41h-668zM897 61l47 361h53q27 -160 65 -245t88 -115.5t126 -30.5q74 0 117 32.5t63.5 117.5t20.5 241v907 q0 23 -9.5 31t-40.5 14l-88 19v41h680v-41l-75 -17q-31 -6 -40.5 -14t-9.5 -31v-868q0 -258 -164.5 -373t-437.5 -115q-86 0 -197.5 24t-197.5 62z" />
<glyph unicode="&#x133;" horiz-adv-x="1552" d="M53 0v37l72 16q31 6 40 14.5t9 30.5v774q0 23 -9 31t-40 15l-72 16v37l492 61h39v-934q0 -23 9 -31t40 -14l72 -16v-37h-652zM168 1323q0 84 57.5 128t153.5 44t153.5 -44t57.5 -128t-57.5 -128t-153.5 -44t-153.5 44t-57.5 128zM649 -385l27 39q37 -33 84 -52.5 t96 -19.5q63 0 90 42t27 167v1081q0 23 -9.5 31t-39.5 15l-72 16v37l491 61h39v-1095q0 -219 -90 -324t-309 -105q-217 0 -334 107zM967 1323q0 84 57 128t154 44q96 0 153.5 -44t57.5 -128t-57.5 -128t-153.5 -44q-97 0 -154 44t-57 128z" />
<glyph unicode="&#x134;" horiz-adv-x="1273" d="M106 61l48 361h53q27 -160 64.5 -245t88 -115.5t125.5 -30.5q74 0 117 32.5t63.5 117.5t20.5 241v907q0 23 -9 31t-40 14l-88 19v41h680v-41l-76 -17q-31 -6 -40 -14t-9 -31v-868q0 -258 -165 -373t-437 -115q-86 0 -197.5 24t-198.5 62zM567 1587q147 121 275 281h106 q121 -152 275 -281l-23 -31q-150 51 -305 142q-156 -90 -305 -142z" />
<glyph unicode="&#x135;" horiz-adv-x="794" d="M-109 -385l27 39q37 -33 84 -52.5t96 -19.5q63 0 90 42t27 167v1081q0 23 -9 31t-40 15l-72 16v37l492 61h39v-1095q0 -219 -90.5 -324t-309.5 -105q-217 0 -334 107zM70 1190q147 121 274 280h107q120 -151 274 -280l-23 -31q-150 51 -305 141q-156 -90 -305 -141z" />
<glyph unicode="&#x136;" horiz-adv-x="1613" d="M53 0v41l76 16q31 6 40 14.5t9 30.5v1229q0 23 -9 31t-40 14l-76 17v41h664v-41l-74 -17q-29 -4 -38 -12t-9 -31v-581l676 585q16 14 16 31q0 14 -22 18l-88 9v39h366v-41l-86 -7q-35 -2 -54.5 -13t-49.5 -38l-480 -415q35 -15 61 -39.5t54 -65.5l449 -715 q16 -25 28.5 -34t34.5 -11l88 -14v-41h-432q-55 0 -86 17.5t-53 52.5l-383 643l-39 -35v-578q0 -23 9 -30t38 -13l74 -16v-41h-664zM680 -274q0 66 44 110.5t120 44.5q80 0 126 -44t46 -128q0 -115 -65.5 -224.5t-168.5 -186.5l-37 34q68 70 93.5 123t27.5 123 q-10 -2 -30 -2q-78 0 -117 42t-39 108z" />
<glyph unicode="&#x137;" horiz-adv-x="1531" d="M49 0v37l72 16q31 6 40 14.5t9 30.5v1237q0 23 -9 31t-40 14l-72 17v37l492 61h39v-930h118q162 0 225.5 71t63.5 200q1 100 -65 108l-23 2v37q123 37 240 37q121 0 168 -43t47 -125q0 -113 -86 -205t-301 -123q55 -14 92 -42.5t84 -88.5l227 -299q18 -23 30.5 -32 t35.5 -13l63 -12v-37h-393q-55 0 -86 17.5t-53 52.5l-318 442h-69v-414q0 -23 9 -32t38 -15l69 -14v-37h-647zM659 -274q0 66 44.5 110.5t119.5 44.5q80 0 126 -44t46 -128q0 -115 -65.5 -224.5t-167.5 -186.5l-37 34q68 70 93.5 123t27.5 123q-11 -2 -31 -2q-78 0 -117 42 t-39 108z" />
<glyph unicode="&#x138;" horiz-adv-x="1531" d="M49 0v37l72 16q31 6 40 14.5t9 30.5v774q0 23 -9 31t-40 15l-72 16v37l496 61h35v-467h118q162 0 225.5 71t63.5 200q0 100 -65 108l-23 2v37q123 37 240 37q121 0 168 -43t47 -125q0 -115 -86 -207t-301 -121q57 -14 94 -42.5t82 -88.5l227 -299q18 -23 30.5 -32 t35.5 -13l63 -12v-37h-393q-55 0 -86 17.5t-53 52.5l-318 442h-69v-414q0 -23 9 -32t38 -15l69 -14v-37h-647z" />
<glyph unicode="&#x139;" horiz-adv-x="1368" d="M53 0v41l76 16q31 6 40 14.5t9 30.5v1229q0 23 -9 31t-40 14l-76 17v41h680v-41l-88 -19q-31 -6 -40 -14t-9 -31v-1268h258q121 0 188.5 37t105.5 104.5t85 205.5h57v-408h-1237zM446 1579l78 57q18 14 118.5 91t162.5 141q47 -23 80 -72t35 -106q-88 -41 -224.5 -79 t-238.5 -55z" />
<glyph unicode="&#x13a;" horiz-adv-x="749" d="M49 0v37l72 16q31 6 40 14.5t9 30.5v1237q0 23 -9 31t-40 14l-72 17v37l492 61h39v-1397q0 -23 9 -31t40 -14l71 -16v-37h-651zM281 1620l77 57q18 14 119 91t162 141q47 -23 80 -72t35 -106q-88 -41 -224.5 -79t-238.5 -55z" />
<glyph unicode="&#x13b;" horiz-adv-x="1368" d="M53 0v41l76 16q31 6 40 14.5t9 30.5v1229q0 23 -9 31t-40 14l-76 17v41h680v-41l-88 -19q-31 -6 -40 -14t-9 -31v-1268h258q121 0 188.5 37t105.5 104.5t85 205.5h57v-408h-1237zM557 -274q0 66 44 110.5t120 44.5q80 0 126 -44t46 -128q0 -115 -65.5 -224.5 t-168.5 -186.5l-36 34q68 70 93 123t27 123q-10 -2 -30 -2q-78 0 -117 42t-39 108z" />
<glyph unicode="&#x13c;" horiz-adv-x="749" d="M49 0v37l72 16q31 6 40 14.5t9 30.5v1237q0 23 -9 31t-40 14l-72 17v37l492 61h39v-1397q0 -23 9 -31t40 -14l71 -16v-37h-651zM207 -274q0 66 44 110.5t120 44.5q80 0 126 -44t46 -128q0 -115 -65.5 -224.5t-168.5 -186.5l-37 34q68 70 93.5 123t27.5 123q-11 -2 -31 -2 q-78 0 -116.5 42t-38.5 108z" />
<glyph unicode="&#x13d;" horiz-adv-x="1368" d="M53 0v41l76 16q31 6 40 14.5t9 30.5v1229q0 23 -9 31t-40 14l-76 17v41h680v-41l-88 -19q-31 -6 -40 -14t-9 -31v-1268h258q121 0 188.5 37t105.5 104.5t85 205.5h57v-408h-1237zM934 1294q0 66 44 111t120 45q80 0 126 -44t46 -128q0 -115 -65.5 -224.5t-168.5 -187.5 l-37 35q68 70 93.5 123t27.5 123q-10 -2 -30 -2q-78 0 -117 42t-39 107z" />
<glyph unicode="&#x13e;" horiz-adv-x="1138" d="M49 0v37l72 16q31 6 40 14.5t9 30.5v1237q0 23 -9 31t-40 14l-72 17v37l492 61h39v-1397q0 -23 9 -31t40 -14l71 -16v-37h-651zM750 1294q0 66 44 111t119 45q80 0 126 -44t46 -128q0 -115 -65.5 -224.5t-167.5 -187.5l-37 35q68 70 93.5 123t27.5 123q-11 -2 -31 -2 q-78 0 -116.5 42t-38.5 107z" />
<glyph unicode="&#x13f;" horiz-adv-x="1368" d="M53 0v41l76 16q31 6 40 14.5t9 30.5v1229q0 23 -9 31t-40 14l-76 17v41h680v-41l-88 -19q-31 -6 -40 -14t-9 -31v-1268h258q121 0 188.5 37t105.5 104.5t85 205.5h57v-408h-1237zM750 569q0 70 50 119t122 49t122 -49t50 -119t-50.5 -119t-121.5 -49q-72 0 -122 49.5 t-50 118.5z" />
<glyph unicode="&#x140;" horiz-adv-x="1216" d="M49 0v37l72 16q31 6 40 14.5t9 30.5v1237q0 23 -9 31t-40 14l-72 17v37l492 61h39v-1397q0 -23 9 -31t40 -14l71 -16v-37h-651zM811 569q0 70 50 119t122 49t122 -49t50 -119t-50 -119t-122 -49t-122 49.5t-50 118.5z" />
<glyph unicode="&#x141;" horiz-adv-x="1368" d="M53 0v41l76 16q31 6 40 14.5t9 30.5v502l-125 -43v57l125 44v669q0 23 -9 31t-40 14l-76 17v41h680v-41l-88 -19q-31 -6 -40 -14t-9 -31v-522l219 78v-58l-219 -77v-689h258q121 0 188.5 37t105.5 104.5t85 205.5h57v-408h-1237z" />
<glyph unicode="&#x142;" horiz-adv-x="749" d="M49 0v37l72 16q31 6 40 14.5t9 30.5v566l-121 -41v57l121 41v614q0 23 -9 31t-40 14l-72 17v37l492 61h39v-631l120 43v-57l-120 -43v-709q0 -23 9 -31t40 -14l71 -16v-37h-651z" />
<glyph unicode="&#x143;" horiz-adv-x="1523" d="M53 0v41l76 16q31 6 40 14.5t9 30.5v1229q0 23 -9 31t-40 14l-76 17v41h568l659 -832v731q0 23 -9 30t-38 13l-74 17v41h311v-41l-75 -17q-31 -6 -40 -14t-9 -31v-1331h-74l-1028 1300v-1200q0 -23 9 -30t38 -13l74 -16v-41h-312zM647 1620l78 57q18 14 118.5 91 t162.5 141q47 -23 79.5 -72t34.5 -106q-88 -41 -224 -79t-239 -55z" />
<glyph unicode="&#x144;" horiz-adv-x="1536" d="M49 0v37l72 16q31 6 40 14.5t9 30.5v774q0 23 -9 31t-40 15l-72 16v37l492 61h34v-166q78 63 191 108.5t250 45.5q190 0 272 -80t82 -240v-602q0 -22 9.5 -30.5t39.5 -14.5l72 -16v-37h-426q-55 0 -79.5 28.5t-24.5 86.5v622q0 92 -30 131t-100 39q-123 0 -251 -102v-707 q0 -23 9 -32t38 -15l69 -14v-37h-647zM674 1182l78 57q18 14 118.5 91t161.5 140q47 -22 80 -71t35 -107q-88 -41 -224.5 -78.5t-238.5 -54.5z" />
<glyph unicode="&#x145;" horiz-adv-x="1523" d="M53 0v41l76 16q31 6 40 14.5t9 30.5v1229q0 23 -9 31t-40 14l-76 17v41h568l659 -832v731q0 23 -9 30t-38 13l-74 17v41h311v-41l-75 -17q-31 -6 -40 -14t-9 -31v-1331h-74l-1028 1300v-1200q0 -23 9 -30t38 -13l74 -16v-41h-312zM610 -274q0 66 44 110.5t120 44.5 q80 0 126 -44t46 -128q0 -115 -65.5 -224.5t-167.5 -186.5l-37 34q68 70 93.5 123t27.5 123q-11 -2 -31 -2q-78 0 -117 42t-39 108z" />
<glyph unicode="&#x146;" horiz-adv-x="1536" d="M49 0v37l72 16q31 6 40 14.5t9 30.5v774q0 23 -9 31t-40 15l-72 16v37l492 61h34v-166q78 63 191 108.5t250 45.5q190 0 272 -80t82 -240v-602q0 -22 9.5 -30.5t39.5 -14.5l72 -16v-37h-426q-55 0 -79.5 28.5t-24.5 86.5v622q0 92 -30 131t-100 39q-123 0 -251 -102v-707 q0 -23 9 -32t38 -15l69 -14v-37h-647zM621 -274q0 66 44 110.5t119 44.5q80 0 126 -44t46 -128q0 -115 -65.5 -224.5t-167.5 -186.5l-37 34q68 70 93.5 123t27.5 123q-11 -2 -31 -2q-78 0 -116.5 42t-38.5 108z" />
<glyph unicode="&#x147;" horiz-adv-x="1523" d="M53 0v41l76 16q31 6 40 14.5t9 30.5v1229q0 23 -9 31t-40 14l-76 17v41h568l659 -832v731q0 23 -9 30t-38 13l-74 17v41h311v-41l-75 -17q-31 -6 -40 -14t-9 -31v-1331h-74l-1028 1300v-1200q0 -23 9 -30t38 -13l74 -16v-41h-312zM455 1837l22 31q150 -51 305 -142 q156 90 305 142l23 -31q-154 -129 -274 -281h-107q-127 160 -274 281z" />
<glyph unicode="&#x148;" horiz-adv-x="1536" d="M49 0v37l72 16q31 6 40 14.5t9 30.5v774q0 23 -9 31t-40 15l-72 16v37l492 61h34v-166q78 63 191 108.5t250 45.5q190 0 272 -80t82 -240v-602q0 -22 9.5 -30.5t39.5 -14.5l72 -16v-37h-426q-55 0 -79.5 28.5t-24.5 86.5v622q0 92 -30 131t-100 39q-123 0 -251 -102v-707 q0 -23 9 -32t38 -15l69 -14v-37h-647zM440 1440l23 30q150 -51 305 -141q156 90 305 141l23 -30q-154 -129 -275 -281h-106q-128 160 -275 281z" />
<glyph unicode="&#x149;" horiz-adv-x="1925" d="M0 1294q0 66 44 111t120 45q80 0 126 -44t46 -128q0 -115 -65.5 -224.5t-168.5 -187.5l-36 35q68 70 93 123t27 123q-10 -2 -30 -2q-78 0 -117 42t-39 107zM438 0v37l72 16q31 6 40 14.5t9 30.5v774q0 23 -9 31t-40 15l-72 16v37l492 61h35v-166q78 63 190.5 108.5 t249.5 45.5q190 0 272 -80t82 -240v-602q0 -22 9.5 -30.5t39.5 -14.5l72 -16v-37h-426q-55 0 -79.5 28.5t-24.5 86.5v622q0 92 -30 131t-99 39q-123 0 -252 -102v-707q0 -23 9 -32t38 -15l69 -14v-37h-647z" />
<glyph unicode="&#x14a;" horiz-adv-x="1523" d="M53 0v41l76 16q31 6 40 14.5t9 30.5v1229q0 23 -9 31t-40 14l-76 17v41h568l659 -832v731q0 23 -9 30t-38 13l-74 17v41h311v-41l-75 -17q-31 -6 -40 -14t-9 -31v-1415q0 -217 -81 -302t-225 -85q-70 0 -133 19.5t-114 52.5l28 57q43 -29 100.5 -46.5t116.5 -17.5 q113 0 177.5 70t64.5 254v72l-1036 1310v-1200q0 -23 9 -30t38 -13l74 -16v-41h-312z" />
<glyph unicode="&#x14b;" horiz-adv-x="1536" d="M49 0v37l72 16q31 6 40 14.5t9 30.5v774q0 23 -9 31t-40 15l-72 16v37l492 61h34v-166q78 63 191 108.5t250 45.5q190 0 272 -80t82 -240v-763q0 -219 -90 -324t-309 -105q-217 0 -334 107l27 39q37 -33 84 -52.5t96 -19.5q63 0 90 42t27 167v946q0 92 -30 131t-100 39 q-123 0 -251 -102v-707q0 -23 9 -32t38 -15l69 -14v-37h-647z" />
<glyph unicode="&#x14c;" horiz-adv-x="1748" d="M115 717q0 389 207.5 565t551.5 176q347 0 553.5 -175t206.5 -566t-206.5 -566.5t-553.5 -175.5q-346 0 -552.5 175.5t-206.5 566.5zM485 1593v49h779v-49h-779zM567 717q0 -256 24.5 -401.5t91.5 -213t191 -67.5q125 0 192 67.5t91.5 213t24.5 401.5t-24.5 401.5 t-91.5 213t-192 67.5t-191.5 -67.5t-91 -213t-24.5 -401.5z" />
<glyph unicode="&#x14d;" horiz-adv-x="1482" d="M102 498q0 264 165 393t474 129t474 -129t165 -393q0 -265 -164.5 -394t-474.5 -129q-309 0 -474 129t-165 394zM352 1196v49h778v-49h-778zM528 498q0 -183 17.5 -281t62.5 -143t133 -45t133.5 45t62.5 143t17 281q0 182 -17 280.5t-62.5 143.5t-133.5 45t-133 -45 t-62.5 -143.5t-17.5 -280.5z" />
<glyph unicode="&#x14e;" horiz-adv-x="1748" d="M115 717q0 389 207.5 565t551.5 176q347 0 553.5 -175t206.5 -566t-206.5 -566.5t-553.5 -175.5q-346 0 -552.5 175.5t-206.5 566.5zM567 717q0 -256 24.5 -401.5t91.5 -213t191 -67.5q125 0 192 67.5t91.5 213t24.5 401.5t-24.5 401.5t-91.5 213t-192 67.5t-191.5 -67.5 t-91 -213t-24.5 -401.5zM592 1870h41q20 -82 72.5 -119t168.5 -37q117 0 169.5 37t72.5 119h41q-4 -147 -73.5 -230.5t-209.5 -83.5q-139 0 -208.5 83t-73.5 231z" />
<glyph unicode="&#x14f;" horiz-adv-x="1482" d="M102 498q0 264 165 393t474 129t474 -129t165 -393q0 -265 -164.5 -394t-474.5 -129q-309 0 -474 129t-165 394zM459 1473h41q20 -82 72.5 -119t168.5 -37q117 0 169.5 37t72.5 119h41q-4 -147 -73.5 -230.5t-209.5 -83.5q-139 0 -208.5 83t-73.5 231zM528 498 q0 -183 17.5 -281t62.5 -143t133 -45t133.5 45t62.5 143t17 281q0 182 -17 280.5t-62.5 143.5t-133.5 45t-133 -45t-62.5 -143.5t-17.5 -280.5z" />
<glyph unicode="&#x150;" horiz-adv-x="1748" d="M115 717q0 389 207.5 565t551.5 176q347 0 553.5 -175t206.5 -566t-206.5 -566.5t-553.5 -175.5q-346 0 -552.5 175.5t-206.5 566.5zM567 717q0 -256 24.5 -401.5t91.5 -213t191 -67.5q125 0 192 67.5t91.5 213t24.5 401.5t-24.5 401.5t-91.5 213t-192 67.5t-191.5 -67.5 t-91 -213t-24.5 -401.5zM618 1612l50 63q154 199 213 293q51 -10 96 -49t61 -92q-80 -61 -193.5 -126t-209.5 -108zM1038 1612l49 63q154 199 213 293q52 -10 97 -49t61 -92q-80 -61 -193.5 -126t-209.5 -108z" />
<glyph unicode="&#x151;" horiz-adv-x="1482" d="M102 498q0 264 165 393t474 129t474 -129t165 -393q0 -265 -164.5 -394t-474.5 -129q-309 0 -474 129t-165 394zM465 1174l49 63q154 199 213 293q51 -10 96 -49t62 -92q-80 -61 -193.5 -126t-210.5 -108zM528 498q0 -183 17.5 -281t62.5 -143t133 -45t133.5 45t62.5 143 t17 281q0 182 -17 280.5t-62.5 143.5t-133.5 45t-133 -45t-62.5 -143.5t-17.5 -280.5zM885 1174l49 63q154 199 213 293q51 -10 96 -49t62 -92q-80 -61 -194 -126t-210 -108z" />
<glyph unicode="&#x152;" horiz-adv-x="2387" d="M115 717q0 393 225 555t655 162h1233v-400h-55q-47 137 -83 203t-102.5 100.5t-187.5 34.5h-225v-608h463v-62h-463v-641h246q121 0 188.5 37t105 104.5t85.5 205.5h57v-408h-1262q-430 0 -655 162t-225 555zM567 717q0 -256 37 -395.5t129 -200t262 -60.5h123 q39 0 39 41v1229q0 41 -39 41h-123q-170 0 -262 -60.5t-129 -199.5t-37 -395z" />
<glyph unicode="&#x153;" horiz-adv-x="2187" d="M102 498q0 264 165 393t474 129q256 0 416 -109q160 109 416 109q170 0 286.5 -53.5t173 -142.5t56.5 -197q0 -55 -10 -103h-715q2 -227 72.5 -346t265.5 -119q96 0 171 29t155 82l26 -39q-190 -156 -504 -156q-242 0 -391 109q-160 -109 -418 -109q-309 0 -474 129 t-165 394zM528 498q0 -183 17.5 -281t62.5 -143t133 -45t133.5 45t62.5 143t17 281q0 182 -17 280.5t-62.5 143.5t-133.5 45t-133 -45t-62.5 -143.5t-17.5 -280.5zM1364 578h344v153q0 125 -29.5 182.5t-117.5 57.5q-113 0 -154 -94.5t-43 -298.5z" />
<glyph unicode="&#x154;" horiz-adv-x="1630" d="M53 0v41l76 16q31 6 40 14.5t9 30.5v1229q0 23 -9 31t-40 14l-76 17v41h602q274 0 436 -36t236 -118t74 -223q0 -158 -94.5 -243t-305.5 -116q121 -8 194 -38.5t114 -97t63 -183.5l23 -123q16 -88 23 -119t20.5 -47t42.5 -16q51 0 86 76l43 -37q-29 -59 -87.5 -96 t-189.5 -37t-206.5 28.5t-118.5 101t-66 209.5l-24 154q-17 100 -38.5 140t-68.5 53.5t-156 13.5h-59v-576q0 -23 9 -30.5t40 -14.5l88 -18v-41h-680zM596 741h78q119 0 183.5 33t89 100.5t24.5 182.5t-24.5 182.5t-89 100t-183.5 32.5h-78v-631zM659 1579l78 57 q18 14 118.5 91t162.5 141q47 -23 79.5 -72t35.5 -106q-88 -41 -224.5 -79t-238.5 -55z" />
<glyph unicode="&#x155;" horiz-adv-x="1105" d="M49 0v37l72 16q31 6 40 14.5t9 30.5v774q0 23 -9 31t-40 15l-72 16v37l492 61h34v-201q179 183 363 183q68 0 106 -17l-30 -319h-15l-419 92v-672q0 -23 9 -32t38 -15l69 -14v-37h-647zM336 1182l78 57q18 14 118.5 91t161.5 140q47 -22 80 -71t35 -107 q-88 -41 -224 -78.5t-239 -54.5z" />
<glyph unicode="&#x156;" horiz-adv-x="1630" d="M53 0v41l76 16q31 6 40 14.5t9 30.5v1229q0 23 -9 31t-40 14l-76 17v41h602q274 0 436 -36t236 -118t74 -223q0 -158 -94.5 -243t-305.5 -116q121 -8 194 -38.5t114 -97t63 -183.5l23 -123q16 -88 23 -119t20.5 -47t42.5 -16q51 0 86 76l43 -37q-29 -59 -87.5 -96 t-189.5 -37t-206.5 28.5t-118.5 101t-66 209.5l-24 154q-17 100 -38.5 140t-68.5 53.5t-156 13.5h-59v-576q0 -23 9 -30.5t40 -14.5l88 -18v-41h-680zM596 741h78q119 0 183.5 33t89 100.5t24.5 182.5t-24.5 182.5t-89 100t-183.5 32.5h-78v-631zM684 -274q0 66 44 110.5 t120 44.5q80 0 126 -44t46 -128q0 -115 -65.5 -224.5t-168.5 -186.5l-36 34q68 70 93 123t27 123q-10 -2 -30 -2q-78 0 -117 42t-39 108z" />
<glyph unicode="&#x157;" horiz-adv-x="1105" d="M49 0v37l72 16q31 6 40 14.5t9 30.5v774q0 23 -9 31t-40 15l-72 16v37l492 61h34v-201q179 183 363 183q68 0 106 -17l-30 -319h-15l-419 92v-672q0 -23 9 -32t38 -15l69 -14v-37h-647zM203 -274q0 66 44 110.5t120 44.5q80 0 126 -44t46 -128q0 -115 -65.5 -224.5 t-168.5 -186.5l-37 34q68 70 93.5 123t27.5 123q-11 -2 -31 -2q-78 0 -116.5 42t-38.5 108z" />
<glyph unicode="&#x158;" horiz-adv-x="1630" d="M53 0v41l76 16q31 6 40 14.5t9 30.5v1229q0 23 -9 31t-40 14l-76 17v41h602q274 0 436 -36t236 -118t74 -223q0 -158 -94.5 -243t-305.5 -116q121 -8 194 -38.5t114 -97t63 -183.5l23 -123q16 -88 23 -119t20.5 -47t42.5 -16q51 0 86 76l43 -37q-29 -59 -87.5 -96 t-189.5 -37t-206.5 28.5t-118.5 101t-66 209.5l-24 154q-17 100 -38.5 140t-68.5 53.5t-156 13.5h-59v-576q0 -23 9 -30.5t40 -14.5l88 -18v-41h-680zM487 1837l23 31q150 -51 305 -142q156 90 305 142l23 -31q-154 -129 -275 -281h-106q-128 160 -275 281zM596 741h78 q119 0 183.5 33t89 100.5t24.5 182.5t-24.5 182.5t-89 100t-183.5 32.5h-78v-631z" />
<glyph unicode="&#x159;" horiz-adv-x="1105" d="M49 0v37l72 16q31 6 40 14.5t9 30.5v774q0 23 -9 31t-40 15l-72 16v37l492 61h34v-201q179 183 363 183q68 0 106 -17l-30 -319h-15l-419 92v-672q0 -23 9 -32t38 -15l69 -14v-37h-647zM246 1440l22 30q150 -51 305 -141q156 90 306 141l22 -30q-154 -129 -274 -281h-107 q-127 160 -274 281z" />
<glyph unicode="&#x15a;" horiz-adv-x="1388" d="M115 1063q0 197 139 296t442 99q135 0 261 -26.5t212 -67.5l-49 -313h-55q-39 125 -81 198.5t-113.5 113.5t-190.5 40q-270 0 -270 -176q0 -72 32.5 -119t98 -85t217.5 -112l41 -18q190 -92 281 -149.5t144.5 -142.5t53.5 -220q0 -201 -150.5 -303.5t-472.5 -102.5 q-129 0 -285.5 29t-242.5 70l55 360h54q27 -160 80 -248t132.5 -121.5t196.5 -33.5q133 0 207 51t74 147q0 78 -34 129.5t-103.5 94.5t-204.5 102q-172 76 -266.5 134.5t-148.5 147.5t-54 226zM580 1579l77 57q18 14 119 91t162 141q47 -23 80 -72t35 -106 q-88 -41 -224.5 -79t-238.5 -55z" />
<glyph unicode="&#x15b;" horiz-adv-x="1138" d="M98 717q0 154 115 228.5t348 74.5q119 0 233.5 -23.5t178.5 -54.5l-25 -246h-35q-55 137 -133 208t-225 71q-94 0 -145.5 -25.5t-51.5 -93.5q0 -47 24 -75.5t74 -53.5t167 -72q168 -68 254 -117t126.5 -112.5t40.5 -159.5q0 -154 -117.5 -222.5t-353.5 -68.5 q-125 0 -261 24t-203 54l28 279h35q37 -162 131 -234.5t246 -72.5q96 0 142 28.5t46 100.5q0 49 -24.5 79.5t-77.5 55t-170 67.5q-199 72 -283 149t-84 212zM434 1182l78 57q18 14 118.5 91t162.5 140q47 -22 79.5 -71t34.5 -107q-88 -41 -224 -78.5t-239 -54.5z" />
<glyph unicode="&#x15c;" horiz-adv-x="1388" d="M115 1063q0 197 139 296t442 99q135 0 261 -26.5t212 -67.5l-49 -313h-55q-39 125 -81 198.5t-113.5 113.5t-190.5 40q-270 0 -270 -176q0 -72 32.5 -119t98 -85t217.5 -112l41 -18q190 -92 281 -149.5t144.5 -142.5t53.5 -220q0 -201 -150.5 -303.5t-472.5 -102.5 q-129 0 -285.5 29t-242.5 70l55 360h54q27 -160 80 -248t132.5 -121.5t196.5 -33.5q133 0 207 51t74 147q0 78 -34 129.5t-103.5 94.5t-204.5 102q-172 76 -266.5 134.5t-148.5 147.5t-54 226zM346 1587q147 121 275 281h106q120 -152 274 -281l-22 -31q-150 51 -305 142 q-156 -90 -305 -142z" />
<glyph unicode="&#x15d;" horiz-adv-x="1138" d="M98 717q0 154 115 228.5t348 74.5q119 0 233.5 -23.5t178.5 -54.5l-25 -246h-35q-55 137 -133 208t-225 71q-94 0 -145.5 -25.5t-51.5 -93.5q0 -47 24 -75.5t74 -53.5t167 -72q168 -68 254 -117t126.5 -112.5t40.5 -159.5q0 -154 -117.5 -222.5t-353.5 -68.5 q-125 0 -261 24t-203 54l28 279h35q37 -162 131 -234.5t246 -72.5q96 0 142 28.5t46 100.5q0 49 -24.5 79.5t-77.5 55t-170 67.5q-199 72 -283 149t-84 212zM221 1190q147 121 275 280h106q121 -151 275 -280l-23 -31q-150 51 -305 141q-156 -90 -305 -141z" />
<glyph unicode="&#x15e;" horiz-adv-x="1388" d="M115 1063q0 197 139 296t442 99q135 0 261 -26.5t212 -67.5l-49 -313h-55q-39 125 -81 198.5t-113.5 113.5t-190.5 40q-270 0 -270 -176q0 -72 32.5 -119t98 -85t217.5 -112l41 -18q190 -92 281 -149.5t144.5 -142.5t53.5 -220q0 -201 -150.5 -303.5t-472.5 -102.5h-18 l-4 -49q133 -6 207.5 -50t74.5 -128q0 -86 -70.5 -130t-176.5 -44q-51 0 -106.5 12.5t-88.5 28.5l14 37q57 -27 142 -27q59 0 86.5 19.5t27.5 66.5q0 59 -44 89t-126 44l19 133q-125 7 -257 33.5t-208 63.5l55 360h54q27 -160 80 -248t132.5 -121.5t196.5 -33.5 q133 0 207 51t74 147q0 78 -34 129.5t-103.5 94.5t-204.5 102q-172 76 -266.5 134.5t-148.5 147.5t-54 226z" />
<glyph unicode="&#x15f;" horiz-adv-x="1138" d="M98 717q0 154 115 228.5t348 74.5q119 0 233.5 -23.5t178.5 -54.5l-25 -246h-35q-55 137 -133 208t-225 71q-94 0 -145.5 -25.5t-51.5 -93.5q0 -47 24 -75.5t74 -53.5t167 -72q168 -68 254 -117t126.5 -112.5t40.5 -159.5q0 -154 -117.5 -222.5t-353.5 -68.5q-41 0 -61 2 l-4 -51q133 -6 208 -50t75 -128q0 -86 -71 -130t-177 -44q-51 0 -106.5 12.5t-88.5 28.5l14 37q57 -27 142 -27q59 0 86.5 19.5t27.5 66.5q0 59 -44 89t-125 44l18 136q-107 8 -206 28.5t-152 44.5l28 279h35q37 -162 131 -234.5t246 -72.5q96 0 142 28.5t46 100.5 q0 49 -24.5 79.5t-77.5 55t-170 67.5q-199 72 -283 149t-84 212z" />
<glyph unicode="&#x160;" horiz-adv-x="1388" d="M115 1063q0 197 139 296t442 99q135 0 261 -26.5t212 -67.5l-49 -313h-55q-39 125 -81 198.5t-113.5 113.5t-190.5 40q-270 0 -270 -176q0 -72 32.5 -119t98 -85t217.5 -112l41 -18q190 -92 281 -149.5t144.5 -142.5t53.5 -220q0 -201 -150.5 -303.5t-472.5 -102.5 q-129 0 -285.5 29t-242.5 70l55 360h54q27 -160 80 -248t132.5 -121.5t196.5 -33.5q133 0 207 51t74 147q0 78 -34 129.5t-103.5 94.5t-204.5 102q-172 76 -266.5 134.5t-148.5 147.5t-54 226zM346 1837l23 31q150 -51 305 -142q156 90 305 142l22 -31q-154 -129 -274 -281 h-106q-128 160 -275 281z" />
<glyph unicode="&#x161;" horiz-adv-x="1138" d="M98 717q0 154 115 228.5t348 74.5q119 0 233.5 -23.5t178.5 -54.5l-25 -246h-35q-55 137 -133 208t-225 71q-94 0 -145.5 -25.5t-51.5 -93.5q0 -47 24 -75.5t74 -53.5t167 -72q168 -68 254 -117t126.5 -112.5t40.5 -159.5q0 -154 -117.5 -222.5t-353.5 -68.5 q-125 0 -261 24t-203 54l28 279h35q37 -162 131 -234.5t246 -72.5q96 0 142 28.5t46 100.5q0 49 -24.5 79.5t-77.5 55t-170 67.5q-199 72 -283 149t-84 212zM221 1440l23 30q150 -51 305 -141q156 90 305 141l23 -30q-154 -129 -275 -281h-106q-128 160 -275 281z" />
<glyph unicode="&#x162;" horiz-adv-x="1482" d="M53 1020v414h1377v-414h-46q-53 143 -88.5 208.5t-104.5 106.5t-194 41h-47v-1274q0 -22 9.5 -30.5t39.5 -14.5l76 -16v-41h-667v41l75 16q31 6 40 14.5t9 30.5v1274h-47q-125 0 -193.5 -41t-104 -106.5t-89.5 -208.5h-45zM573 -274q0 66 44.5 110.5t119.5 44.5 q80 0 126 -44t46 -128q0 -115 -65.5 -224.5t-167.5 -186.5l-37 34q68 70 93.5 123t27.5 123q-11 -2 -31 -2q-78 0 -117 42t-39 108z" />
<glyph unicode="&#x163;" horiz-adv-x="913" d="M45 942v53q63 0 94 10.5t62 36.5l364 328h19v-375h264v-53h-264v-688q0 -98 23.5 -138t80.5 -40q45 0 80 18.5t76 63.5l33 -39q-129 -143 -381 -144q-170 0 -244 72t-74 223v672h-133zM268 -274q0 66 44 110.5t120 44.5q80 0 126 -44t46 -128q0 -115 -65.5 -224.5 t-167.5 -186.5l-37 34q68 70 93.5 123t27.5 123q-11 -2 -31 -2q-78 0 -117 42t-39 108z" />
<glyph unicode="&#x164;" horiz-adv-x="1482" d="M53 1020v414h1377v-414h-46q-53 143 -88.5 208.5t-104.5 106.5t-194 41h-47v-1274q0 -22 9.5 -30.5t39.5 -14.5l76 -16v-41h-667v41l75 16q31 6 40 14.5t9 30.5v1274h-47q-125 0 -193.5 -41t-104 -106.5t-89.5 -208.5h-45zM414 1878l22 31q150 -51 305 -142 q156 90 306 142l22 -31q-154 -129 -274 -281h-107q-127 160 -274 281z" />
<glyph unicode="&#x165;" horiz-adv-x="1302" d="M45 942v53q63 0 94 10.5t62 36.5l364 328h19v-375h264v-53h-264v-688q0 -98 23.5 -138t80.5 -40q45 0 80 18.5t76 63.5l33 -39q-129 -143 -381 -144q-170 0 -244 72t-74 223v672h-133zM913 1294q0 66 44 111t120 45q80 0 126 -44t46 -128q0 -115 -65.5 -224.5 t-167.5 -187.5l-37 35q68 70 93.5 123t27.5 123q-11 -2 -31 -2q-78 0 -117 42t-39 107z" />
<glyph unicode="&#x166;" horiz-adv-x="1482" d="M53 1020v414h1377v-414h-46q-53 143 -88.5 208.5t-104.5 106.5t-194 41h-47v-655h160v-49h-160v-570q0 -23 9.5 -31t39.5 -14l76 -16v-41h-667v41l75 16q31 6 40 14.5t9 30.5v570h-159v49h159v655h-47q-125 0 -193.5 -41t-104 -106.5t-89.5 -208.5h-45z" />
<glyph unicode="&#x167;" horiz-adv-x="913" d="M45 582v49h133v311h-133v53q63 0 94 10.5t62 36.5l364 328h19v-375h264v-53h-264v-311h219v-49h-219v-328q0 -98 23.5 -138t80.5 -40q45 0 80 18.5t76 63.5l33 -39q-129 -143 -381 -144q-170 0 -244 72t-74 223v312h-133z" />
<glyph unicode="&#x168;" horiz-adv-x="1544" d="M41 1393v41h664v-41l-74 -17q-29 -6 -38 -13t-9 -30v-829q0 -174 24.5 -270.5t95 -142.5t207.5 -46q197 0 301.5 129t104.5 342v815q0 23 -9.5 31t-39.5 14l-76 17v41h311v-41l-73 -17q-29 -6 -38.5 -13t-9.5 -30v-801q-4 -258 -139 -407.5t-436 -149.5 q-328 0 -484.5 133.5t-156.5 432.5v790q0 23 -9.5 31t-39.5 14zM528 1591q31 80 54.5 129t63.5 88t95 39q37 0 91.5 -18.5t191.5 -73.5l74 -29q18 -8 47 -8q25 0 47 10.5t37 28.5l49 62l25 -11q-31 -80 -54.5 -129t-63.5 -88t-95 -39q-37 0 -91.5 18.5t-191.5 74.5l-74 28 q-18 8 -47 8q-25 0 -47.5 -10t-36.5 -29l-49 -61z" />
<glyph unicode="&#x169;" horiz-adv-x="1527" d="M41 934v37l496 61h34v-774q0 -92 30 -131t99 -39q123 0 248 102v682q0 23 -9 31t-40 15l-72 16v37l496 61h35v-934q0 -23 9 -31t40 -14l72 -16v-37h-416q-59 0 -85 25.5t-26 80.5v23q-74 -63 -186.5 -108.5t-249.5 -45.5q-190 0 -272 80t-82 240v577q0 23 -9.5 31 t-39.5 15zM377 1194q31 80 54.5 129t63.5 88t95 39q37 0 91 -18.5t191 -73.5l74 -29q18 -8 47 -8q25 0 47.5 10t36.5 29l49 61l25 -10q-31 -80 -54.5 -129t-63.5 -88t-95 -39q-37 0 -91 18.5t-192 73.5l-73 29q-18 8 -47 8q-25 0 -47.5 -10t-36.5 -29l-50 -61z" />
<glyph unicode="&#x16a;" horiz-adv-x="1544" d="M41 1393v41h664v-41l-74 -17q-29 -6 -38 -13t-9 -30v-829q0 -174 24.5 -270.5t95 -142.5t207.5 -46q197 0 301.5 129t104.5 342v815q0 23 -9.5 31t-39.5 14l-76 17v41h311v-41l-73 -17q-29 -6 -38.5 -13t-9.5 -30v-801q-4 -258 -139 -407.5t-436 -149.5 q-328 0 -484.5 133.5t-156.5 432.5v790q0 23 -9.5 31t-39.5 14zM526 1593v49h779v-49h-779z" />
<glyph unicode="&#x16b;" horiz-adv-x="1527" d="M41 934v37l496 61h34v-774q0 -92 30 -131t99 -39q123 0 248 102v682q0 23 -9 31t-40 15l-72 16v37l496 61h35v-934q0 -23 9 -31t40 -14l72 -16v-37h-416q-59 0 -85 25.5t-26 80.5v23q-74 -63 -186.5 -108.5t-249.5 -45.5q-190 0 -272 80t-82 240v577q0 23 -9.5 31 t-39.5 15zM375 1196v49h778v-49h-778z" />
<glyph unicode="&#x16c;" horiz-adv-x="1544" d="M41 1393v41h664v-41l-74 -17q-29 -6 -38 -13t-9 -30v-829q0 -174 24.5 -270.5t95 -142.5t207.5 -46q197 0 301.5 129t104.5 342v815q0 23 -9.5 31t-39.5 14l-76 17v41h311v-41l-73 -17q-29 -6 -38.5 -13t-9.5 -30v-801q-4 -258 -139 -407.5t-436 -149.5 q-328 0 -484.5 133.5t-156.5 432.5v790q0 23 -9.5 31t-39.5 14zM633 1870h41q20 -82 72.5 -119t168.5 -37q117 0 169.5 37t72.5 119h41q-4 -147 -73.5 -230.5t-209.5 -83.5q-139 0 -208.5 83t-73.5 231z" />
<glyph unicode="&#x16d;" horiz-adv-x="1527" d="M41 934v37l496 61h34v-774q0 -92 30 -131t99 -39q123 0 248 102v682q0 23 -9 31t-40 15l-72 16v37l496 61h35v-934q0 -23 9 -31t40 -14l72 -16v-37h-416q-59 0 -85 25.5t-26 80.5v23q-74 -63 -186.5 -108.5t-249.5 -45.5q-190 0 -272 80t-82 240v577q0 23 -9.5 31 t-39.5 15zM481 1473h41q20 -82 72.5 -119t169.5 -37t169 37t73 119h41q-4 -147 -74 -230.5t-209 -83.5t-209 83t-74 231z" />
<glyph unicode="&#x16e;" horiz-adv-x="1544" d="M41 1393v41h664v-41l-74 -17q-29 -6 -38 -13t-9 -30v-829q0 -174 24.5 -270.5t95 -142.5t207.5 -46q197 0 301.5 129t104.5 342v815q0 23 -9.5 31t-39.5 14l-76 17v41h311v-41l-73 -17q-29 -6 -38.5 -13t-9.5 -30v-801q-4 -258 -139 -407.5t-436 -149.5 q-328 0 -484.5 133.5t-156.5 432.5v790q0 23 -9.5 31t-39.5 14zM682 1751q0 96 66.5 145.5t166.5 49.5q101 0 167.5 -49.5t66.5 -145.5t-66.5 -145.5t-167.5 -49.5q-100 0 -166.5 49.5t-66.5 145.5zM827 1751q0 -80 20.5 -120t67.5 -40q48 0 68.5 40t20.5 120t-20.5 120 t-68.5 40q-47 0 -67.5 -40t-20.5 -120z" />
<glyph unicode="&#x16f;" horiz-adv-x="1527" d="M41 934v37l496 61h34v-774q0 -92 30 -131t99 -39q123 0 248 102v682q0 23 -9 31t-40 15l-72 16v37l496 61h35v-934q0 -23 9 -31t40 -14l72 -16v-37h-416q-59 0 -85 25.5t-26 80.5v23q-74 -63 -186.5 -108.5t-249.5 -45.5q-190 0 -272 80t-82 240v577q0 23 -9.5 31 t-39.5 15zM530 1354q0 96 67 145t167 49t166.5 -49t66.5 -145t-66.5 -145.5t-166.5 -49.5t-167 49t-67 146zM676 1354q0 -80 20.5 -120t67.5 -40t67.5 40t20.5 120t-20.5 119.5t-67.5 39.5t-67.5 -39.5t-20.5 -119.5z" />
<glyph unicode="&#x170;" horiz-adv-x="1544" d="M41 1393v41h664v-41l-74 -17q-29 -6 -38 -13t-9 -30v-829q0 -174 24.5 -270.5t95 -142.5t207.5 -46q197 0 301.5 129t104.5 342v815q0 23 -9.5 31t-39.5 14l-76 17v41h311v-41l-73 -17q-29 -6 -38.5 -13t-9.5 -30v-801q-4 -258 -139 -407.5t-436 -149.5 q-328 0 -484.5 133.5t-156.5 432.5v790q0 23 -9.5 31t-39.5 14zM659 1571l50 63q154 199 213 293q51 -10 96 -49t61 -92q-80 -61 -193.5 -126t-209.5 -108zM1079 1571l49 63q154 199 213 293q52 -10 97 -49t61 -92q-80 -61 -193.5 -126t-209.5 -108z" />
<glyph unicode="&#x171;" horiz-adv-x="1527" d="M41 934v37l496 61h34v-774q0 -92 30 -131t99 -39q123 0 248 102v682q0 23 -9 31t-40 15l-72 16v37l496 61h35v-934q0 -23 9 -31t40 -14l72 -16v-37h-416q-59 0 -85 25.5t-26 80.5v23q-74 -63 -186.5 -108.5t-249.5 -45.5q-190 0 -272 80t-82 240v577q0 23 -9.5 31 t-39.5 15zM344 1174l49 63q154 199 213 293q51 -10 96.5 -49t61.5 -92q-80 -61 -193.5 -126t-210.5 -108zM764 1174l49 63q154 199 213 293q51 -10 96 -49t62 -92q-80 -61 -193.5 -126t-210.5 -108z" />
<glyph unicode="&#x172;" horiz-adv-x="1544" d="M41 1393v41h664v-41l-74 -17q-29 -6 -38 -13t-9 -30v-829q0 -174 24.5 -270.5t95 -142.5t207.5 -46q197 0 301.5 129t104.5 342v815q0 23 -9.5 31t-39.5 14l-76 17v41h311v-41l-73 -17q-29 -6 -38.5 -13t-9.5 -30v-801q-6 -449 -378 -536q-63 -33 -91 -85t-28 -128 q0 -63 27.5 -92t91.5 -29q49 0 108 47l14 -22q-94 -106 -225 -107q-106 0 -161.5 39t-55.5 113q0 86 57.5 147.5t153.5 100.5q-57 -4 -88 -5q-328 0 -484.5 133.5t-156.5 432.5v790q0 23 -9.5 31t-39.5 14z" />
<glyph unicode="&#x173;" horiz-adv-x="1527" d="M41 934v37l496 61h34v-774q0 -92 30 -131t99 -39q123 0 248 102v682q0 23 -9 31t-40 15l-72 16v37l496 61h35v-934q0 -23 9 -31t40 -14l72 -16v-37h-156q-68 -33 -97.5 -86t-29.5 -131q0 -63 27.5 -92t91.5 -29q49 0 108 47l15 -22q-94 -106 -226 -107q-106 0 -161.5 39 t-55.5 113q0 98 76 165.5t197 102.5h-205q-59 0 -85 25.5t-26 80.5v23q-74 -63 -186.5 -108.5t-249.5 -45.5q-190 0 -272 80t-82 240v577q0 23 -9.5 31t-39.5 15z" />
<glyph unicode="&#x174;" horiz-adv-x="2347" d="M45 1393v41h672v-41l-80 -9q-29 -4 -29 -32q0 -6 4 -23l312 -811l219 606l-84 211q-10 27 -21.5 36t-36.5 13l-71 9v41h672v-41l-84 -9q-29 -4 -29 -32q0 -6 4 -23l311 -811l297 819q6 16 6 23q0 23 -30 24l-86 9v41h311v-41l-76 -9q-25 -2 -35 -12t-22 -37l-500 -1358 h-65l-426 1059l-390 -1059h-65l-545 1358q-10 27 -21.5 36t-35.5 13zM866 1628q147 121 275 281h106q121 -152 275 -281l-23 -31q-150 51 -305 142q-156 -90 -305 -142z" />
<glyph unicode="&#x175;" horiz-adv-x="1892" d="M8 965v30h627v-30l-37 -9q-47 -10 -47 -43q0 -12 10 -32l238 -478l131 308l-103 198q-10 20 -21 29.5t-28 13.5l-49 13v30h623v-30l-54 -13q-47 -10 -47 -39q0 -12 11 -32l237 -478l242 521q2 4 2 12q0 10 -10.5 14t-30.5 8l-53 7v30h235v-30l-53 -9q-25 -4 -35 -10 t-20 -28l-416 -955h-37l-362 690l-302 -690h-36l-496 946q-10 18 -23.5 26.5t-33.5 12.5zM629 1190q147 121 274 280h107q120 -151 274 -280l-22 -31q-150 51 -306 141q-156 -90 -305 -141z" />
<glyph unicode="&#x176;" horiz-adv-x="1474" d="M8 1393v41h666v-41l-82 -9q-29 -2 -29 -24q0 -12 8 -27l328 -618l365 622q4 13 4 15q0 14 -12.5 23t-28.5 11l-97 9v39h340v-41l-63 -7q-33 -2 -45 -13t-29 -38l-391 -671v-562q0 -23 9.5 -31t39.5 -14l76 -16v-41h-668v41l76 16q31 6 40 14.5t9 30.5v549l-377 684 q-14 25 -26 36t-33 13zM573 1628q147 121 275 281h106q121 -152 275 -281l-23 -31q-150 51 -305 142q-156 -90 -305 -142z" />
<glyph unicode="&#x177;" horiz-adv-x="1191" d="M8 965v30h643v-30l-53 -13q-47 -10 -47 -39q0 -12 10 -32l238 -478l223 521q6 12 6 20q0 12 -27 14l-53 7v30h236v-30l-54 -9q-25 -4 -35 -10t-20 -28l-399 -918q-82 -190 -134.5 -279.5t-117 -137.5t-172.5 -75l-111 312q139 6 264 46t216 101l-494 942 q-10 18 -23.5 26.5t-33.5 12.5zM453 1190q147 121 274 280h107q120 -151 274 -280l-23 -31q-150 51 -305 141q-156 -90 -305 -141z" />
<glyph unicode="&#x178;" horiz-adv-x="1474" d="M8 1393v41h666v-41l-82 -9q-29 -2 -29 -24q0 -12 8 -27l328 -618l365 622q4 13 4 15q0 14 -12.5 23t-28.5 11l-97 9v39h340v-41l-63 -7q-33 -2 -45 -13t-29 -38l-391 -671v-562q0 -23 9.5 -31t39.5 -14l76 -16v-41h-668v41l76 16q31 6 40 14.5t9 30.5v549l-377 684 q-14 25 -26 36t-33 13zM438 1720q0 63 44 106.5t114 43.5t114 -43t44 -107q0 -63 -44 -106t-114 -43t-114 43t-44 106zM926 1720q0 63 44 106.5t113 43.5q70 0 114 -43t44 -107q0 -63 -44 -106t-114 -43q-69 0 -113 43t-44 106z" />
<glyph unicode="&#x179;" horiz-adv-x="1560" d="M119 0v53l844 1319h-318q-123 0 -190.5 -34.5t-105.5 -102.5t-81 -201h-51v400h1213v-54l-846 -1319h411q123 0 190.5 36t105.5 104.5t81 206.5h51v-408h-1304zM768 1579l78 57q18 14 118.5 91t161.5 141q48 -23 80.5 -72t34.5 -106q-88 -41 -224 -79t-239 -55z" />
<glyph unicode="&#x17a;" horiz-adv-x="1155" d="M66 0v41l596 903h-226q-94 0 -144 -19.5t-79 -63.5t-57 -134h-41v268h962v-41l-596 -903h279q94 0 144 20.5t79 66.5t57 138h41v-276h-1015zM442 1182l78 57q18 14 118.5 91t162.5 140q47 -22 79.5 -71t34.5 -107q-88 -41 -224 -78.5t-238 -54.5z" />
<glyph unicode="&#x17b;" horiz-adv-x="1560" d="M119 0v53l844 1319h-318q-123 0 -190.5 -34.5t-105.5 -102.5t-81 -201h-51v400h1213v-54l-846 -1319h411q123 0 190.5 36t105.5 104.5t81 206.5h51v-408h-1304zM623 1716q0 76 49 115t129 39t129 -39t49 -115t-49 -114.5t-129 -38.5t-129 38.5t-49 114.5z" />
<glyph unicode="&#x17c;" horiz-adv-x="1155" d="M66 0v41l596 903h-226q-94 0 -144 -19.5t-79 -63.5t-57 -134h-41v268h962v-41l-596 -903h279q94 0 144 20.5t79 66.5t57 138h41v-276h-1015zM420 1319q0 76 49 115t129 39t129 -39t49 -115t-49 -115t-129 -39t-129 39t-49 115z" />
<glyph unicode="&#x17d;" horiz-adv-x="1560" d="M119 0v53l844 1319h-318q-123 0 -190.5 -34.5t-105.5 -102.5t-81 -201h-51v400h1213v-54l-846 -1319h411q123 0 190.5 36t105.5 104.5t81 206.5h51v-408h-1304zM494 1837l22 31q150 -51 305 -142q156 90 305 142l23 -31q-154 -129 -275 -281h-106q-127 160 -274 281z" />
<glyph unicode="&#x17e;" horiz-adv-x="1155" d="M66 0v41l596 903h-226q-94 0 -144 -19.5t-79 -63.5t-57 -134h-41v268h962v-41l-596 -903h279q94 0 144 20.5t79 66.5t57 138h41v-276h-1015zM270 1440l23 30q150 -51 305 -141q156 90 305 141l23 -30q-154 -129 -275 -281h-106q-128 160 -275 281z" />
<glyph unicode="&#x18f;" horiz-adv-x="1667" d="M102 498q0 123 15 172h985q-4 344 -110.5 515t-362.5 171q-113 0 -204 -37t-173 -102l-41 45q90 84 234.5 140t318.5 56q344 0 566 -181t222 -581q0 -371 -219 -546t-575 -175q-348 0 -502 148.5t-154 374.5zM561 326q0 -98 16.5 -160t64.5 -96.5t140 -34.5 q150 0 233 148.5t87 424.5h-541v-282z" />
<glyph unicode="&#x192;" horiz-adv-x="1357" d="M-74 -362l72 268h43l12 -68q12 -84 24.5 -125t43.5 -64.5t90 -23.5q72 0 98.5 76t40.5 215q2 16 5 48t7 52l130 721h-134l11 54h131l67 368q31 170 151 253t361 83q197 0 316 -61l-74 -269h-43l-12 72q-12 84 -24.5 124t-42.5 62.5t-89 22.5q-74 0 -101.5 -76t-41.5 -217 q-2 -16 -5.5 -47t-7.5 -51l-49 -264h312l-11 -54h-309l-147 -825q-31 -170 -151 -253t-359 -83q-109 0 -188 17.5t-126 44.5z" />
<glyph unicode="&#x1a0;" horiz-adv-x="1757" d="M115 717q0 389 207.5 565t551.5 176q348 0 543 -168q53 35 76 78t23 98q0 61 -34 92t-106 46l41 61q299 0 299 -158q0 -152 -256 -260q174 -186 174 -530q0 -391 -206.5 -566.5t-553.5 -175.5q-346 0 -552.5 175.5t-206.5 566.5zM567 717q0 -256 24.5 -401.5t91.5 -213 t191 -67.5q125 0 192 67.5t91.5 213t24.5 401.5t-24.5 401.5t-91.5 213t-192 67.5t-191.5 -67.5t-91 -213t-24.5 -401.5z" />
<glyph unicode="&#x1a1;" horiz-adv-x="1495" d="M102 498q0 264 165 393t474 129q281 0 443 -107q70 61 69 156q0 61 -33.5 92t-105.5 45l41 62q299 0 299 -158q0 -137 -213 -242q139 -129 139 -370q0 -264 -164.5 -393.5t-474.5 -129.5q-309 0 -474 129t-165 394zM528 498q0 -183 17.5 -281t62.5 -143t133 -45t133.5 45 t62.5 143t17 281q0 182 -17 280.5t-62.5 143.5t-133.5 45t-133 -45t-62.5 -143.5t-17.5 -280.5z" />
<glyph unicode="&#x1af;" horiz-adv-x="1593" d="M41 1393v41h664v-41l-74 -17q-29 -4 -38 -12t-9 -31v-829q0 -174 24.5 -270.5t95 -142.5t207.5 -46q197 0 301.5 129t104.5 342v918h65v-113q62 39 87.5 83t25.5 103q0 61 -34 92t-105 46l41 61q299 0 299 -158q0 -92 -89 -162.5t-225 -119.5v-734q-4 -258 -139 -407.5 t-436 -149.5q-328 0 -484.5 133.5t-156.5 432.5v790q0 23 -9.5 31t-39.5 14z" />
<glyph unicode="&#x1b0;" horiz-adv-x="1679" d="M41 934v37l496 61h34v-774q0 -92 30 -131t99 -39q123 0 248 102v682q0 23 -9 31t-40 15l-72 16v37l496 61h35v-153q66 39 93.5 85t27.5 105q0 61 -34 92t-106 45l41 62q299 0 299 -158q0 -168 -321 -287v-725q0 -23 9 -31t40 -14l72 -16v-37h-416q-59 0 -85 25.5 t-26 80.5v23q-74 -63 -186.5 -108.5t-249.5 -45.5q-190 0 -272 80t-82 240v577q0 23 -9.5 31t-39.5 15z" />
<glyph unicode="&#x1cd;" horiz-adv-x="1556" d="M37 0v41l76 8q25 2 35 12.5t22 36.5l567 1358h66l600 -1358q12 -27 22.5 -37t34.5 -12l76 -8v-41h-676v41l88 8q29 4 29 23q0 10 -6 24l-135 299h-476l-122 -299q-6 -14 -7 -24q0 -18 29 -23l88 -8v-41h-311zM385 457h424l-221 489zM440 1837l23 31q150 -51 305 -142 q156 90 305 142l23 -31q-154 -129 -275 -281h-106q-128 160 -275 281z" />
<glyph unicode="&#x1ce;" horiz-adv-x="1318" d="M78 227q0 127 74.5 199t218 102.5t381.5 36.5v150q0 115 -45 165t-158 50q-94 0 -175 -25.5t-165 -77.5l-27 39q98 70 236.5 112t310.5 42q231 0 329.5 -91t98.5 -263v-568q0 -23 9.5 -31t39.5 -14l72 -16v-37h-422q-57 0 -80.5 23.5t-23.5 78.5v11q-137 -133 -392 -133 q-133 0 -207.5 60t-74.5 187zM332 1440l22 30q150 -51 305 -141q156 90 306 141l22 -30q-154 -129 -274 -281h-107q-127 160 -274 281zM475 256q0 -78 27.5 -112.5t87.5 -34.5q88 -1 162 69v332q-115 -8 -174.5 -36t-81 -79t-21.5 -139z" />
<glyph unicode="&#x1cf;" horiz-adv-x="790" d="M61 0v41l76 16q31 6 40 14.5t9 30.5v1229q0 23 -9 31t-40 14l-76 17v41h668v-41l-76 -17q-31 -6 -40 -14t-9 -31v-1229q0 -23 9.5 -31t39.5 -14l76 -16v-41h-668zM68 1837l22 31q150 -51 305 -142q156 90 305 142l23 -31q-154 -129 -274 -281h-107q-127 160 -274 281z " />
<glyph unicode="&#x1d0;" horiz-adv-x="757" d="M51 1440l23 30q150 -51 305 -141q156 90 305 141l23 -30q-154 -129 -275 -281h-106q-128 160 -275 281zM53 0v37l72 16q31 6 40 14.5t9 30.5v774q0 23 -9 31t-40 15l-72 16v37l492 61h39v-934q0 -23 9 -31t40 -14l72 -16v-37h-652z" />
<glyph unicode="&#x1d1;" horiz-adv-x="1748" d="M115 717q0 389 207.5 565t551.5 176q347 0 553.5 -175t206.5 -566t-206.5 -566.5t-553.5 -175.5q-346 0 -552.5 175.5t-206.5 566.5zM547 1837l22 31q150 -51 305 -142q156 90 306 142l22 -31q-154 -129 -274 -281h-107q-127 160 -274 281zM567 717q0 -256 24.5 -401.5 t91.5 -213t191 -67.5q125 0 192 67.5t91.5 213t24.5 401.5t-24.5 401.5t-91.5 213t-192 67.5t-191.5 -67.5t-91 -213t-24.5 -401.5z" />
<glyph unicode="&#x1d2;" horiz-adv-x="1482" d="M102 498q0 264 165 393t474 129t474 -129t165 -393q0 -265 -164.5 -394t-474.5 -129q-309 0 -474 129t-165 394zM414 1440l22 30q150 -51 305 -141q156 90 306 141l22 -30q-154 -129 -274 -281h-107q-127 160 -274 281zM528 498q0 -183 17.5 -281t62.5 -143t133 -45 t133.5 45t62.5 143t17 281q0 182 -17 280.5t-62.5 143.5t-133.5 45t-133 -45t-62.5 -143.5t-17.5 -280.5z" />
<glyph unicode="&#x1d3;" horiz-adv-x="1544" d="M41 1393v41h664v-41l-74 -17q-29 -6 -38 -13t-9 -30v-829q0 -174 24.5 -270.5t95 -142.5t207.5 -46q197 0 301.5 129t104.5 342v815q0 23 -9.5 31t-39.5 14l-76 17v41h311v-41l-73 -17q-29 -6 -38.5 -13t-9.5 -30v-801q-4 -258 -139 -407.5t-436 -149.5 q-328 0 -484.5 133.5t-156.5 432.5v790q0 23 -9.5 31t-39.5 14zM629 1837l22 31q150 -51 305 -142q156 90 306 142l22 -31q-154 -129 -274 -281h-107q-127 160 -274 281z" />
<glyph unicode="&#x1d4;" horiz-adv-x="1527" d="M41 934v37l496 61h34v-774q0 -92 30 -131t99 -39q123 0 248 102v682q0 23 -9 31t-40 15l-72 16v37l496 61h35v-934q0 -23 9 -31t40 -14l72 -16v-37h-416q-59 0 -85 25.5t-26 80.5v23q-74 -63 -186.5 -108.5t-249.5 -45.5q-190 0 -272 80t-82 240v577q0 23 -9.5 31 t-39.5 15zM436 1440l23 30q150 -51 305 -141q156 90 305 141l23 -30q-154 -129 -275 -281h-106q-128 160 -275 281z" />
<glyph unicode="&#x1d5;" horiz-adv-x="1544" d="M41 1393v41h664v-41l-74 -17q-29 -6 -38 -13t-9 -30v-829q0 -174 24.5 -270.5t95 -142.5t207.5 -46q197 0 301.5 129t104.5 342v815q0 23 -9.5 31t-39.5 14l-76 17v41h311v-41l-73 -17q-29 -6 -38.5 -13t-9.5 -30v-801q-4 -258 -139 -407.5t-436 -149.5 q-328 0 -484.5 133.5t-156.5 432.5v790q0 23 -9.5 31t-39.5 14zM563 1714q0 57 42 97t100 40q57 0 99 -39.5t42 -97.5q0 -57 -42 -97t-99 -40q-58 0 -100 40t-42 97zM563 1939v50h778v-50h-778zM1059 1714q0 57 42 97t99 40t99 -39.5t42 -97.5q0 -57 -42 -97t-99 -40t-99 40 t-42 97z" />
<glyph unicode="&#x1d6;" horiz-adv-x="1527" d="M41 934v37l496 61h34v-774q0 -92 30 -131t99 -39q123 0 248 102v682q0 23 -9 31t-40 15l-72 16v37l496 61h35v-934q0 -23 9 -31t40 -14l72 -16v-37h-416q-59 0 -85 25.5t-26 80.5v23q-74 -63 -186.5 -108.5t-249.5 -45.5q-190 0 -272 80t-82 240v577q0 23 -9.5 31 t-39.5 15zM375 1323q0 57 42 97t99 40t99 -40t42 -97t-42 -97t-99 -40t-99 40t-42 97zM375 1548v49h778v-49h-778zM870 1323q0 57 42 97t100 40q57 0 99 -40t42 -97t-42 -97t-99 -40q-58 0 -100 40t-42 97z" />
<glyph unicode="&#x1d7;" horiz-adv-x="1544" d="M41 1393v41h664v-41l-74 -17q-29 -6 -38 -13t-9 -30v-829q0 -174 24.5 -270.5t95 -142.5t207.5 -46q197 0 301.5 129t104.5 342v815q0 23 -9.5 31t-39.5 14l-76 17v41h311v-41l-73 -17q-29 -6 -38.5 -13t-9.5 -30v-801q-4 -258 -139 -407.5t-436 -149.5 q-328 0 -484.5 133.5t-156.5 432.5v790q0 23 -9.5 31t-39.5 14zM563 1714q0 57 42 97t100 40q57 0 99 -39.5t42 -97.5q0 -57 -42 -97t-99 -40q-58 0 -100 40t-42 97zM899 1862q125 182 186 307q43 -4 81 -33t55 -74q-178 -160 -299 -221zM1059 1714q0 57 42 97t99 40 t99 -39.5t42 -97.5q0 -57 -42 -97t-99 -40t-99 40t-42 97z" />
<glyph unicode="&#x1d8;" horiz-adv-x="1527" d="M41 934v37l496 61h34v-774q0 -92 30 -131t99 -39q123 0 248 102v682q0 23 -9 31t-40 15l-72 16v37l496 61h35v-934q0 -23 9 -31t40 -14l72 -16v-37h-416q-59 0 -85 25.5t-26 80.5v23q-74 -63 -186.5 -108.5t-249.5 -45.5q-190 0 -272 80t-82 240v577q0 23 -9.5 31 t-39.5 15zM375 1323q0 57 42 97t99 40t99 -40t42 -97t-42 -97t-99 -40t-99 40t-42 97zM711 1470q125 182 186 308q43 -4 81 -33t54 -74q-178 -160 -299 -221zM870 1323q0 57 42 97t100 40q57 0 99 -40t42 -97t-42 -97t-99 -40q-58 0 -100 40t-42 97z" />
<glyph unicode="&#x1d9;" horiz-adv-x="1544" d="M41 1393v41h664v-41l-74 -17q-29 -6 -38 -13t-9 -30v-829q0 -174 24.5 -270.5t95 -142.5t207.5 -46q197 0 301.5 129t104.5 342v815q0 23 -9.5 31t-39.5 14l-76 17v41h311v-41l-73 -17q-29 -6 -38.5 -13t-9.5 -30v-801q-4 -258 -139 -407.5t-436 -149.5 q-328 0 -484.5 133.5t-156.5 432.5v790q0 23 -9.5 31t-39.5 14zM563 1714q0 57 42 97t100 40q57 0 99 -39.5t42 -97.5q0 -57 -42 -97t-99 -40q-58 0 -100 40t-42 97zM633 2150l22 31q180 -57 297 -125q117 68 297 125l23 -31q-156 -123 -266 -243h-107q-135 149 -266 243z M1059 1714q0 57 42 97t99 40t99 -39.5t42 -97.5q0 -57 -42 -97t-99 -40t-99 40t-42 97z" />
<glyph unicode="&#x1da;" horiz-adv-x="1527" d="M41 934v37l496 61h34v-774q0 -92 30 -131t99 -39q123 0 248 102v682q0 23 -9 31t-40 15l-72 16v37l496 61h35v-934q0 -23 9 -31t40 -14l72 -16v-37h-416q-59 0 -85 25.5t-26 80.5v23q-74 -63 -186.5 -108.5t-249.5 -45.5q-190 0 -272 80t-82 240v577q0 23 -9.5 31 t-39.5 15zM375 1323q0 57 42 97t99 40t99 -40t42 -97t-42 -97t-99 -40t-99 40t-42 97zM444 1759l23 31q180 -57 297 -125q117 68 297 125l22 -31q-156 -123 -266 -243h-106q-136 149 -267 243zM870 1323q0 57 42 97t100 40q57 0 99 -40t42 -97t-42 -97t-99 -40 q-58 0 -100 40t-42 97z" />
<glyph unicode="&#x1db;" horiz-adv-x="1544" d="M41 1393v41h664v-41l-74 -17q-29 -6 -38 -13t-9 -30v-829q0 -174 24.5 -270.5t95 -142.5t207.5 -46q197 0 301.5 129t104.5 342v815q0 23 -9.5 31t-39.5 14l-76 17v41h311v-41l-73 -17q-29 -6 -38.5 -13t-9.5 -30v-801q-4 -258 -139 -407.5t-436 -149.5 q-328 0 -484.5 133.5t-156.5 432.5v790q0 23 -9.5 31t-39.5 14zM563 1714q0 57 42 97t100 40q57 0 99 -39.5t42 -97.5q0 -57 -42 -97t-99 -40q-58 0 -100 40t-42 97zM692 2062q16 45 54 74t81 33q62 -125 187 -307l-23 -21q-121 61 -299 221zM1059 1714q0 57 42 97t99 40 t99 -39.5t42 -97.5q0 -57 -42 -97t-99 -40t-99 40t-42 97z" />
<glyph unicode="&#x1dc;" horiz-adv-x="1527" d="M41 934v37l496 61h34v-774q0 -92 30 -131t99 -39q123 0 248 102v682q0 23 -9 31t-40 15l-72 16v37l496 61h35v-934q0 -23 9 -31t40 -14l72 -16v-37h-416q-59 0 -85 25.5t-26 80.5v23q-74 -63 -186.5 -108.5t-249.5 -45.5q-190 0 -272 80t-82 240v577q0 23 -9.5 31 t-39.5 15zM375 1323q0 57 42 97t99 40t99 -40t42 -97t-42 -97t-99 -40t-99 40t-42 97zM504 1671q16 45 54 74t81 33q61 -126 186 -308l-22 -20q-121 61 -299 221zM870 1323q0 57 42 97t100 40q57 0 99 -40t42 -97t-42 -97t-99 -40q-58 0 -100 40t-42 97z" />
<glyph unicode="&#x1e6;" horiz-adv-x="1617" d="M115 737q0 371 223 546t588 175q152 0 294 -26.5t222 -65.5l-29 -352h-57q-57 174 -156.5 279.5t-271.5 105.5q-195 0 -279 -152.5t-84 -455.5q0 -263 47 -421.5t154.5 -232.5t290.5 -74h65v504h-202v62h559v-539q-45 -8 -107.5 -23.5t-95.5 -23.5q-135 -35 -216 -51.5 t-151 -16.5q-219 0 -397 75t-287.5 245t-109.5 442zM604 1837l23 31q150 -51 305 -142q156 90 305 142l23 -31q-154 -129 -275 -281h-106q-128 160 -275 281z" />
<glyph unicode="&#x1e7;" horiz-adv-x="1417" d="M119 -223q0 86 67.5 133t178.5 61q-233 55 -234 219q0 178 217 218q-193 84 -192 278q0 178 140 254t400 76q125 -4 217 -21q59 90 166 148.5t256 58.5l-49 -235h-22l-52 14q-82 23 -143 23q-57 0 -92 -23q260 -74 260 -295q0 -178 -141.5 -257t-399.5 -79 q-145 0 -252 27q-63 -4 -111 -21.5t-48 -46.5q0 -31 26.5 -46t84 -24.5t190.5 -21.5l348 -33q147 -14 234 -46t127 -92t40 -159q0 -131 -95 -216t-244.5 -124t-319.5 -39q-244 0 -400.5 67t-156.5 202zM381 1440l22 30q150 -51 306 -141q156 90 305 141l22 -30 q-154 -129 -274 -281h-107q-127 160 -274 281zM399 -186q0 -127 61.5 -188.5t229.5 -61.5q197 0 305.5 48t108.5 142q0 53 -21.5 81t-70.5 43.5t-146 25.5l-288 33q-109 14 -152 22q-27 -57 -27 -145zM532 686q0 -147 34 -216t130 -69q97 0 130.5 69t33.5 216 q0 141 -33.5 210t-130.5 69q-96 0 -130 -69t-34 -210z" />
<glyph unicode="&#x1fa;" horiz-adv-x="1556" d="M37 0v41l76 8q25 2 35 12.5t22 36.5l539 1309q-82 12 -132.5 59t-50.5 131q0 96 66.5 145.5t167.5 49.5q100 0 166.5 -49t66.5 -146q0 -84 -49 -131t-129 -59l571 -1309q12 -27 22.5 -37t35.5 -12l76 -8v-41h-676v41l88 8q29 4 29 25q0 8 -7 22l-141 320h-448l-132 -320 q-6 -14 -6 -22q0 -20 29 -25l88 -8v-41h-307zM389 477h397l-204 467zM672 1597q0 -80 20.5 -119.5t67.5 -39.5t67.5 40t20.5 119q0 80 -20.5 120t-67.5 40t-67.5 -40t-20.5 -120zM719 1886l78 58q18 14 118.5 90.5t161.5 140.5q47 -23 80 -72t35 -106q-88 -41 -224.5 -79 t-238.5 -54z" />
<glyph unicode="&#x1fb;" horiz-adv-x="1318" d="M78 227q0 127 74.5 199t218 102.5t381.5 36.5v150q0 115 -45 165t-158 50q-94 0 -175 -25.5t-165 -77.5l-27 39q98 70 236.5 112t310.5 42q231 0 329.5 -91t98.5 -263v-568q0 -23 9.5 -31t39.5 -14l72 -16v-37h-422q-57 0 -80.5 23.5t-23.5 78.5v11q-137 -133 -392 -133 q-133 0 -207.5 60t-74.5 187zM446 1354q0 96 67 145t167 49t166.5 -49t66.5 -145t-66.5 -145.5t-166.5 -49.5t-167 49t-67 146zM475 256q0 -78 27.5 -112.5t87.5 -34.5q88 -1 162 69v332q-115 -8 -174.5 -36t-81 -79t-21.5 -139zM592 1354q0 -80 20.5 -120t67.5 -40t67.5 40 t20.5 120t-20.5 119.5t-67.5 39.5t-67.5 -39.5t-20.5 -119.5zM639 1642l78 58q18 14 118.5 91t161.5 140q47 -22 80 -71.5t35 -106.5q-88 -41 -224 -79t-239 -54z" />
<glyph unicode="&#x1fc;" horiz-adv-x="2138" d="M33 0v41l80 8q25 2 36 12.5t27 36.5l770 1270l-31 8l-75 17v41h1179v-400h-55q-47 137 -83 203t-102.5 100.5t-187.5 34.5h-209v-608h447v-62h-447v-641h230q121 0 188.5 37t105.5 104.5t85 205.5h57v-408h-1208v41l75 16q31 6 40.5 14.5t9.5 30.5v351h-500l-213 -357 q-10 -16 -10 -28q0 -14 24 -19l86 -8v-41h-319zM502 514h463v766zM1180 1579l77 57q18 14 119 91t162 141q47 -23 80 -72t35 -106q-88 -41 -224.5 -79t-238.5 -55z" />
<glyph unicode="&#x1fd;" horiz-adv-x="1974" d="M78 227q0 127 77.5 199t226 102.5t386.5 36.5v150q0 115 -49 165t-162 50q-180 0 -348 -103l-27 39q96 68 238.5 111t308.5 43q186 0 293 -72q139 72 350 72q162 0 275.5 -53.5t171 -142.5t57.5 -197q0 -55 -10 -103h-690q2 -225 70.5 -345t254.5 -120q86 0 160 29 t154 82l26 -39q-190 -156 -491 -156q-154 0 -271.5 48.5t-193.5 138.5q-293 -182 -516 -182q-135 0 -213 61t-78 186zM475 256q0 -76 31 -111.5t92 -35.5q88 0 170 61v340q-117 -8 -179.5 -36t-88 -80t-25.5 -138zM893 1182l78 57q18 14 118.5 91t161.5 140q47 -22 80 -71 t35 -107q-88 -41 -224 -78.5t-239 -54.5zM1176 578h319v153q0 121 -29.5 180.5t-105.5 59.5q-100 0 -141 -96.5t-43 -296.5z" />
<glyph unicode="&#x1fe;" horiz-adv-x="1748" d="M115 717q0 389 207.5 565t551.5 176q211 1 373 -65l90 149l52 -31l-86 -143q332 -172 331 -651q0 -391 -206.5 -566.5t-553.5 -175.5q-211 0 -374 64l-88 -148l-52 31l86 144q-332 172 -331 651zM567 717q0 -275 27 -408l541 897q-33 100 -95.5 146.5t-165.5 46.5 q-125 0 -191.5 -67.5t-91 -213t-24.5 -401.5zM612 227q33 -100 95.5 -146t166.5 -46q125 0 192 67.5t91.5 213t24.5 401.5t-27 407zM758 1579l78 57q18 14 118.5 91t161.5 141q47 -23 80 -72t35 -106q-88 -41 -224.5 -79t-238.5 -55z" />
<glyph unicode="&#x1ff;" horiz-adv-x="1482" d="M102 498q0 264 165 393t474 129q170 0 293 -39l78 115l47 -33l-67 -100q289 -117 288 -465q0 -265 -164.5 -394t-474.5 -129q-168 0 -295 37l-75 -112l-47 32l67 101q-289 117 -289 465zM528 498q1 -164 11 -246l389 571q-23 76 -67 110t-120 34q-88 0 -133 -45 t-62.5 -143.5t-17.5 -280.5zM555 172q20 -76 64.5 -109.5t121.5 -33.5q88 0 133.5 45t62.5 143t17 281q0 147 -12 245zM625 1182l77 57q18 14 119 91t162 140q47 -22 80 -71t35 -107q-88 -41 -224.5 -78.5t-238.5 -54.5z" />
<glyph unicode="&#x218;" horiz-adv-x="1388" d="M115 1063q0 197 139 296t442 99q135 0 261 -26.5t212 -67.5l-49 -313h-55q-39 125 -81 198.5t-113.5 113.5t-190.5 40q-270 0 -270 -176q0 -72 32.5 -119t98 -85t217.5 -112l41 -18q190 -92 281 -149.5t144.5 -142.5t53.5 -220q0 -201 -150.5 -303.5t-472.5 -102.5 q-129 0 -285.5 29t-242.5 70l55 360h54q27 -160 80 -248t132.5 -121.5t196.5 -33.5q133 0 207 51t74 147q0 78 -34 129.5t-103.5 94.5t-204.5 102q-172 76 -266.5 134.5t-148.5 147.5t-54 226zM526 -274q0 66 44 110.5t120 44.5q80 0 126 -44t46 -128q0 -115 -65.5 -224.5 t-167.5 -186.5l-37 34q68 70 93.5 123t27.5 123q-11 -2 -31 -2q-78 0 -117 42t-39 108z" />
<glyph unicode="&#x219;" horiz-adv-x="1138" d="M98 717q0 154 115 228.5t348 74.5q119 0 233.5 -23.5t178.5 -54.5l-25 -246h-35q-55 137 -133 208t-225 71q-94 0 -145.5 -25.5t-51.5 -93.5q0 -47 24 -75.5t74 -53.5t167 -72q168 -68 254 -117t126.5 -112.5t40.5 -159.5q0 -154 -117.5 -222.5t-353.5 -68.5 q-125 0 -261 24t-203 54l28 279h35q37 -162 131 -234.5t246 -72.5q96 0 142 28.5t46 100.5q0 49 -24.5 79.5t-77.5 55t-170 67.5q-199 72 -283 149t-84 212zM401 -274q0 66 44 110.5t120 44.5q80 0 126 -44t46 -128q0 -115 -65.5 -224.5t-167.5 -186.5l-37 34 q68 70 93.5 123t27.5 123q-11 -2 -31 -2q-78 0 -117 42t-39 108z" />
<glyph unicode="&#x21a;" horiz-adv-x="1482" d="M53 1020v414h1377v-414h-46q-53 143 -88.5 208.5t-104.5 106.5t-194 41h-47v-1274q0 -22 9.5 -30.5t39.5 -14.5l76 -16v-41h-667v41l75 16q31 6 40 14.5t9 30.5v1274h-47q-125 0 -193.5 -41t-104 -106.5t-89.5 -208.5h-45zM573 -274q0 66 44.5 110.5t119.5 44.5 q80 0 126 -44t46 -128q0 -115 -65.5 -224.5t-167.5 -186.5l-37 34q68 70 93.5 123t27.5 123q-11 -2 -31 -2q-78 0 -117 42t-39 108z" />
<glyph unicode="&#x21b;" horiz-adv-x="913" d="M45 942v53q63 0 94 10.5t62 36.5l364 328h19v-375h264v-53h-264v-688q0 -98 23.5 -138t80.5 -40q45 0 80 18.5t76 63.5l33 -39q-129 -143 -381 -144q-170 0 -244 72t-74 223v672h-133zM268 -274q0 66 44 110.5t120 44.5q80 0 126 -44t46 -128q0 -115 -65.5 -224.5 t-167.5 -186.5l-37 34q68 70 93.5 123t27.5 123q-11 -2 -31 -2q-78 0 -117 42t-39 108z" />
<glyph unicode="&#x237;" horiz-adv-x="794" d="M-109 -385l27 39q37 -33 84 -52.5t96 -19.5q63 0 90 42t27 167v1081q0 23 -9 31t-40 15l-72 16v37l492 61h39v-1095q0 -219 -90.5 -324t-309.5 -105q-217 0 -334 107z" />
<glyph unicode="&#x251;" horiz-adv-x="1511" d="M106 510q0 264 133.5 387t360.5 123q207 0 344 -96v65l371 43h35v-934q0 -23 9 -31t40 -14l71 -16v-37h-421q-57 0 -81 23.5t-24 78.5v2q-125 -125 -344 -124q-227 0 -360.5 129t-133.5 401zM528 510q0 -162 17.5 -257t59.5 -140t116 -45q117 0 219 102v694 q-92 70 -209 70q-113 0 -158 -98.5t-45 -325.5z" />
<glyph unicode="&#x259;" horiz-adv-x="1347" d="M98 369q1 55 11 102h714q-2 147 -29.5 247.5t-101.5 159t-207 58.5q-96 0 -170.5 -28.5t-154.5 -82.5l-27 39q190 156 504 156q283 0 445.5 -136t162.5 -399q0 -248 -166 -379t-465 -131q-170 0 -286.5 53.5t-173 142.5t-56.5 198zM479 264q0 -125 30 -182t118 -57 q110 0 152 94t44 299h-344v-154z" />
<glyph unicode="&#x261;" horiz-adv-x="1509" d="M106 526q0 252 134.5 373t359.5 121q203 0 336 -92v61l371 43h34v-1034q0 -264 -199.5 -377t-475.5 -113q-156 0 -285 23t-201 55l29 299h39q37 -162 136 -244.5t243 -82.5q111 0 175 31.5t97 114.5t33 237v186q-127 -115 -332 -115q-225 0 -359.5 127t-134.5 387z M528 526q0 -225 42 -325.5t151 -100.5q109 1 211 95v675q-96 63 -201 64q-111 0 -157 -96.5t-46 -311.5z" />
<glyph unicode="&#x2bb;" horiz-adv-x="606" d="M135 1014q0 119 72 240.5t176 203.5l41 -43q-133 -141 -133 -266q14 2 39 2q78 0 117.5 -44t39.5 -110q0 -70 -46 -116.5t-126 -46.5q-82 0 -131 46t-49 134z" />
<glyph unicode="&#x2bc;" horiz-adv-x="606" d="M119 1286q0 70 46 117t126 47q82 0 131 -46t49 -134q0 -119 -71.5 -241t-176.5 -204l-41 43q133 141 133 267q-14 -2 -39 -2q-78 0 -117.5 44t-39.5 109z" />
<glyph unicode="&#x2be;" d="M-131 1143v37q53 0 78.5 43t25.5 131t-25.5 131t-78.5 43v37q111 0 186.5 -53.5t75.5 -157.5t-75.5 -157.5t-186.5 -53.5z" />
<glyph unicode="&#x2bf;" d="M-131 1354q0 104 75.5 157.5t186.5 53.5v-37q-53 0 -78.5 -43t-25.5 -131t25.5 -131t78.5 -43v-37q-111 0 -186.5 53t-75.5 158z" />
<glyph unicode="&#x2c6;" horiz-adv-x="901" d="M123 1190q147 121 274 280h107q120 -151 274 -280l-22 -31q-150 51 -305 141q-156 -90 -306 -141z" />
<glyph unicode="&#x2c7;" horiz-adv-x="901" d="M123 1440l22 30q150 -51 306 -141q156 90 305 141l22 -30q-154 -129 -274 -281h-107q-127 160 -274 281z" />
<glyph unicode="&#x2c8;" d="M-41 1118v336h82v-336h-82z" />
<glyph unicode="&#x2c9;" horiz-adv-x="901" d="M143 1176v61h615v-61h-615z" />
<glyph unicode="&#x2ca;" d="M-227 1198l346 291l108 -186l-440 -129z" />
<glyph unicode="&#x2cb;" d="M-227 1303l108 186l346 -291l-14 -24z" />
<glyph unicode="&#x2cc;" d="M-41 -123h82v-336h-82v336z" />
<glyph unicode="&#x2d8;" horiz-adv-x="901" d="M168 1473h41q20 -82 72.5 -119t169.5 -37t169 37t72 119h41q-4 -147 -73.5 -230.5t-208.5 -83.5q-140 0 -209.5 83t-73.5 231z" />
<glyph unicode="&#x2d9;" horiz-adv-x="901" d="M272 1319q0 76 49.5 115t129.5 39t129 -39t49 -115t-49.5 -115t-128.5 -39q-80 0 -129.5 39t-49.5 115z" />
<glyph unicode="&#x2da;" horiz-adv-x="901" d="M217 1354q0 96 66.5 145t167.5 49q100 0 166.5 -49t66.5 -145t-66.5 -145.5t-166.5 -49.5t-167 49t-67 146zM362 1354q0 -80 20.5 -120t68.5 -40q47 0 67.5 40t20.5 120t-20.5 119.5t-67.5 39.5t-68 -39.5t-21 -119.5z" />
<glyph unicode="&#x2db;" horiz-adv-x="901" d="M229 -268q0 104 84 172.5t217 103.5h45q-78 -33 -111.5 -87t-33.5 -138q0 -63 27.5 -92t91.5 -29q49 0 108 47l15 -22q-95 -107 -226 -107q-106 0 -161.5 39t-55.5 113z" />
<glyph unicode="&#x2dc;" horiz-adv-x="901" d="M63 1194q31 80 54.5 129t63.5 88t95 39q37 0 91.5 -18.5t191.5 -73.5l74 -29q18 -8 47 -8q25 0 47.5 10t36.5 29l49 61l25 -10q-31 -80 -54.5 -129t-63.5 -88t-95 -39q-37 0 -91.5 18.5t-191.5 73.5l-74 29q-18 8 -47 8q-25 0 -47 -10t-37 -29l-49 -61z" />
<glyph unicode="&#x2dd;" horiz-adv-x="901" d="M31 1174l49 63q154 199 213 293q51 -10 96 -49t62 -92q-80 -61 -194 -126t-210 -108zM451 1174l49 63q154 199 213 293q51 -10 96 -49t61 -92q-80 -61 -193.5 -126t-209.5 -108z" />
<glyph unicode="&#x300;" d="M-686 1292q2 57 35 106.5t80 71.5q61 -63 161.5 -140t118.5 -91l78 -57l-10 -23q-102 16 -238.5 54t-224.5 79z" />
<glyph unicode="&#x301;" d="M-692 1182l78 57q18 14 118.5 91t161.5 140q47 -22 80 -71t35 -107q-88 -41 -224.5 -78.5t-238.5 -54.5z" />
<glyph unicode="&#x302;" d="M-328 1190q147 121 275 280h106q121 -151 275 -280l-23 -31q-150 51 -305 141q-156 -90 -305 -141z" />
<glyph unicode="&#x303;" d="M-836 1194q31 80 54.5 129t63.5 88t95 39q37 0 91.5 -18.5t191.5 -73.5l74 -29q18 -8 47 -8q25 0 47 10t37 29l49 61l25 -10q-31 -80 -54.5 -129t-63.5 -88t-95 -39q-37 0 -91.5 18.5t-191.5 73.5l-74 29q-18 8 -47 8q-25 0 -47.5 -10t-36.5 -29l-49 -61z" />
<glyph unicode="&#x304;" d="M-389 1196v49h778v-49h-778z" />
<glyph unicode="&#x306;" d="M-283 1473h41q20 -82 72.5 -119t169.5 -37t169 37t73 119h41q-4 -147 -74 -230.5t-209 -83.5t-209 83t-74 231z" />
<glyph unicode="&#x307;" d="M-178 1319q0 76 49 115t129 39t129 -39t49 -115t-49 -115t-129 -39t-129 39t-49 115z" />
<glyph unicode="&#x308;" d="M-401 1323q0 63 44 106.5t113 43.5q70 0 114 -43.5t44 -106.5t-44 -106t-114 -43q-69 0 -113 43t-44 106zM86 1323q0 63 44 106.5t114 43.5t113.5 -43.5t43.5 -106.5t-44 -106t-113 -43q-70 0 -114 43t-44 106z" />
<glyph unicode="&#x309;" d="M-684 1497q111 53 235 53q88 0 141.5 -34.5t53.5 -108.5q0 -129 -209 -178l-8 -70h-57l-13 101q45 29 65.5 64.5t20.5 86.5q0 74 -80 74q-41 0 -69.5 -7.5t-65.5 -21.5z" />
<glyph unicode="&#x30a;" d="M-233 1354q0 96 66.5 145t166.5 49t166.5 -49t66.5 -145t-66.5 -145.5t-166.5 -49.5t-166.5 49t-66.5 146zM-88 1354q0 -80 20.5 -120t67.5 -40t67.5 40t20.5 120t-20.5 119.5t-67.5 39.5t-67.5 -39.5t-20.5 -119.5z" />
<glyph unicode="&#x30b;" d="M-283 1174l50 63q154 199 213 293q51 -10 96 -49t61 -92q-80 -61 -193.5 -126t-209.5 -108zM137 1174l49 63q154 199 213 293q52 -10 97 -49t61 -92q-80 -61 -193.5 -126t-209.5 -108z" />
<glyph unicode="&#x30c;" d="M-328 1440l23 30q150 -51 305 -141q156 90 305 141l23 -30q-154 -129 -275 -281h-106q-128 160 -275 281z" />
<glyph unicode="&#x31b;" d="M-156 860q88 41 123 91t35 118q0 61 -34 92t-105 45l41 62q299 0 299 -158q0 -96 -96.5 -169t-241.5 -122z" />
<glyph unicode="&#x323;" d="M-743 -272q0 74 47 113.5t123 39.5t123 -40t47 -113q0 -74 -47.5 -114t-122.5 -40q-76 0 -123 40t-47 114z" />
<glyph unicode="&#x324;" d="M-975 -268q0 63 44 106t114 43t114 -43t44 -106t-44.5 -106.5t-113.5 -43.5q-70 0 -114 43t-44 107zM-487 -268q0 63 44 106t113 43q70 0 114 -43t44 -106t-44 -106.5t-114 -43.5q-69 0 -113 43t-44 107z" />
<glyph unicode="&#x326;" d="M-168 -274q0 66 44 110.5t120 44.5q80 0 126 -44t46 -128q0 -115 -65.5 -224.5t-168.5 -186.5l-36 34q68 70 93 123t27 123q-10 -2 -30 -2q-78 0 -117 42t-39 108z" />
<glyph unicode="&#x327;" d="M-145 -385l14 37q57 -27 141 -27q59 0 87 19.5t28 66.5q0 59 -44 89t-126 44l22 156h46l-9 -74q133 -6 208 -50t75 -128q0 -86 -70.5 -130t-177.5 -44q-51 0 -106.5 12.5t-87.5 28.5z" />
<glyph unicode="&#x328;" d="M-301 -268q0 104 84 172.5t217 103.5h45q-78 -33 -111.5 -87t-33.5 -138q0 -63 27.5 -92t90.5 -29q49 0 109 47l14 -22q-94 -107 -225 -107q-106 0 -161.5 39t-55.5 113z" />
<glyph unicode="&#x32e;" d="M-283 -84h41q20 -82 72.5 -119t169.5 -37t169 37t73 119h41q-4 -147 -74 -230t-209 -83t-209 83t-74 230z" />
<glyph unicode="&#x331;" d="M-389 -176h778v-49h-778v49z" />
<glyph unicode="&#x3c0;" horiz-adv-x="1519" d="M53 0v37l72 16q31 6 40 14.5t9 30.5v799q0 23 -9 31t-40 14l-72 16v37h1413v-37l-71 -16q-31 -6 -40 -14t-9 -31v-799q0 -23 9 -31t40 -14l71 -16v-37h-639v37l68 16q31 6 40 14.5t9 30.5v844h-369v-844q0 -23 9.5 -31t40.5 -14l67 -16v-37h-639z" />
<glyph unicode="&#xe01;" horiz-adv-x="1560" d="M57 0v43l68 12q31 6 40 14.5t9 30.5v539q0 88 53.5 150.5t147.5 87.5v26l-264 49v33q336 158 708 158q305 0 436 -91t131 -278v-674q0 -23 9.5 -31t40.5 -14l67 -12v-43h-422q-108 0 -108 119v715q0 98 -16.5 150t-59.5 74.5t-125 22.5q-92 0 -184 -20v-961q0 -23 9 -31 t40 -14l63 -12v-43h-643z" />
<glyph unicode="&#xe02;" horiz-adv-x="1495" d="M49 944q0 92 68.5 145.5t271.5 53.5q324 0 324 -217q0 -47 -15.5 -85t-48.5 -89q-33 -53 -51 -97.5t-18 -101.5v-250q0 -104 12 -160.5t48 -83t108 -26.5t106.5 26.5t46.5 83t12 160.5v793l371 47h43v-772q0 -193 -129 -294.5t-450 -101.5q-322 0 -452 101.5t-130 294.5 v186q0 57 21.5 97t64.5 94q45 53 68.5 97t23.5 107q0 61 -21.5 91t-76.5 30q-63 0 -99 -33.5t-36 -99.5q0 -37 6 -68h-56q-12 31 -12 72z" />
<glyph unicode="&#xe03;" horiz-adv-x="1499" d="M45 1094h53q0 -98 28 -150.5t81 -52.5q35 0 55.5 23.5t48.5 76.5q33 63 65 95t87 32h155q113 -45 113 -172q0 -68 -21.5 -122t-62.5 -124q-33 -57 -48 -93t-15 -75v-229q0 -104 12 -160.5t48 -83t108 -26.5t106.5 26.5t47 83t12.5 160.5v793l370 47h43v-772 q0 -193 -129 -294.5t-450 -101.5q-322 0 -452 101.5t-130 294.5v135q0 76 36 127t122 90l43 18q152 68 223.5 118t71.5 124v18h-23q-49 -76 -149.5 -129t-241.5 -53q-111 0 -159 71t-48 204z" />
<glyph unicode="&#xe04;" horiz-adv-x="1609" d="M57 0v43l68 12q31 6 40 14.5t9 30.5v631q0 203 144.5 307.5t486.5 104.5t486.5 -104.5t144.5 -307.5v-631q0 -22 9 -30.5t40 -14.5l67 -12v-43h-422q-109 0 -108 119v682q0 113 -15.5 171t-61.5 85.5t-140 27.5t-140.5 -27.5t-61.5 -86t-15 -170.5v-248q55 59 109.5 94 t127.5 35q51 0 86 -20v-277h-32q-129 68 -172 87.5t-66 19.5q-53 0 -53 -50v-342q0 -23 9 -31t40 -14l63 -12v-43h-643z" />
<glyph unicode="&#xe05;" horiz-adv-x="1642" d="M57 0v43l68 12q31 6 40 14.5t9 30.5v697q0 172 89 259t284 87q219 0 274 -129q55 129 275 129q195 0 283.5 -87t88.5 -259v-697q0 -22 9.5 -30.5t40.5 -14.5l67 -12v-43h-422q-109 0 -108 119v794q0 68 -20.5 98.5t-71.5 30.5q-47 0 -76 -37.5t-29 -107.5v-33h-74v33 q0 70 -28.5 107.5t-75.5 37.5q-51 0 -71.5 -30.5t-20.5 -98.5v-360q53 57 112.5 93t133.5 36q51 0 86 -20v-277h-33q-125 66 -172 86.5t-70 20.5q-27 0 -42 -13.5t-15 -36.5v-342q0 -23 9 -31t40 -14l63 -12v-43h-643z" />
<glyph unicode="&#xe06;" horiz-adv-x="1595" d="M53 1094h53q0 -98 28 -150.5t81 -52.5q35 0 55.5 23.5t48.5 76.5q33 63 65 95t87 32h156q113 -45 112 -172q0 -66 -17 -117t-54 -129q-29 -55 -42.5 -92t-13.5 -76v-313q58 -57 122.5 -93t146.5 -36q78 0 105.5 44t27.5 161v686q0 23 -9.5 31t-39.5 14l-70 12v43l489 62 h43v-824q0 -174 -95 -259t-318 -85q-137 0 -240.5 53.5t-165.5 127.5q0 -70 -32.5 -113t-96.5 -43h-397v43l68 12q31 6 40 14.5t9 30.5v406q0 76 34.5 128t116.5 89q127 57 184.5 87t98.5 73t41 100v18h-23q-49 -76 -149.5 -129t-241.5 -53q-111 0 -159 71t-48 204z" />
<glyph unicode="&#xe07;" horiz-adv-x="1417" d="M57 774l351 86l251 -813h25q113 0 154 131t41 404q0 242 -50.5 357.5t-160.5 115.5q-66 0 -123 -33l-33 61q45 25 125 42.5t174 17.5q250 0 375 -142.5t125 -410.5q0 -221 -63.5 -355.5t-195.5 -194.5t-347 -60q-123 0 -230.5 18t-183.5 53z" />
<glyph unicode="&#xe08;" horiz-adv-x="1380" d="M61 561v60h363q43 0 63.5 -18.5t32.5 -59.5l139 -490q94 10 140.5 143.5t46.5 370.5q0 250 -82 366t-268 116q-106 0 -206 -26t-181 -73l-37 54q115 66 243.5 102.5t327.5 36.5q309 0 472 -139.5t163 -423.5q0 -272 -153.5 -426t-452.5 -154h-367l-164 561h-80z" />
<glyph unicode="&#xe09;" horiz-adv-x="1466" d="M53 578v43h531v-367q0 -102 20.5 -139t87.5 -37q55 0 103.5 37t83.5 92v536q0 123 -33 188.5t-107.5 91.5t-210.5 26q-109 0 -216 -27t-187 -72l-37 54q111 63 249 101t339 38q317 0 466.5 -105.5t149.5 -355.5v-584q0 -22 9.5 -30.5t39.5 -14.5l68 -12v-41h-459 q-68 0 -67 66v59q-51 -68 -127 -106.5t-213 -38.5q-188 0 -280.5 75.5t-92.5 237.5v227q0 23 -9 31t-40 14z" />
<glyph unicode="&#xe0a;" horiz-adv-x="1503" d="M49 944q0 92 68.5 145.5t271.5 53.5q324 0 324 -217q0 -47 -15.5 -85t-48.5 -89q-33 -53 -51 -97.5t-18 -101.5v-250q0 -104 13 -160.5t49 -83t110 -26.5t109.5 26.5t48 83t12.5 160.5v170q0 104 -8.5 160.5t-30 81t-60.5 24.5h-67v58h78q59 0 81.5 28.5t22.5 89.5v197 l395 47h19v-164q0 -104 -60.5 -165.5t-161.5 -75.5q106 -14 155.5 -79t49.5 -200v-104q0 -193 -130 -294.5t-453 -101.5q-324 0 -455 101.5t-131 294.5v186q0 57 21.5 97t64.5 94q45 53 68.5 97t23.5 107q0 61 -21.5 91t-76.5 30q-63 0 -99 -33.5t-36 -99.5q0 -37 6 -68h-56 q-12 31 -12 72z" />
<glyph unicode="&#xe0b;" horiz-adv-x="1503" d="M45 1094h53q0 -98 28 -150.5t81 -52.5q35 0 55.5 23.5t48.5 76.5q33 63 65 95t87 32h155q113 -45 113 -172q0 -68 -21.5 -122t-62.5 -124q-33 -57 -48 -93t-15 -75v-229q0 -104 13 -160.5t49 -83t110 -26.5t109.5 26.5t48 83t12.5 160.5v170q0 104 -8.5 160.5t-30 81 t-60.5 24.5h-59v58h70q59 0 81.5 28.5t22.5 89.5v197l395 47h19v-164q0 -104 -60.5 -165.5t-160.5 -75.5q106 -14 155 -79t49 -200v-104q0 -193 -130 -294.5t-453 -101.5q-324 0 -455 101.5t-131 294.5v135q0 76 36 127t122 90l43 18q152 68 223.5 118t71.5 124v18h-23 q-49 -76 -149.5 -129t-241.5 -53q-111 0 -159 71t-48 204z" />
<glyph unicode="&#xe0c;" horiz-adv-x="2322" d="M111 952v33q336 158 700 158q299 0 429 -91t130 -278v-555q61 -61 117.5 -97t132.5 -36q72 0 96.5 41t24.5 143v711q0 23 -9.5 31t-39.5 14l-70 12v43l489 62h43v-840q0 -162 -89 -245t-293 -83q-254 0 -406 181l-47 -156h-363v834q0 98 -16 150t-57 74.5t-119 22.5 q-84 0 -176 -20v-782q0 -117 11 -162t63 -45q29 0 60.5 18.5t57.5 52.5l39 -34q-84 -129 -291 -129q-188 0 -280 105t-92 329q0 197 54 307t165 156v26z" />
<glyph unicode="&#xe0d;" horiz-adv-x="2291" d="M111 952v33q336 158 700 158q299 0 429 -91t130 -278v-377q0 -145 38 -201.5t132 -56.5t132 57.5t38 200.5v584q0 23 -9 31t-40 14l-70 12v43l490 62h43v-680q0 -180 -115 -273q63 -33 100 -96t37 -147q0 -135 -137 -211t-379 -76q-186 0 -337.5 42t-229.5 128l205 178 h14l39 -47q100 -123 210.5 -173t256.5 -50q133 0 223 59.5t90 157.5q0 147 -125 213q-139 -90 -436 -90q-315 0 -449.5 97t-134.5 288v371q0 98 -16 150t-57 74.5t-119 22.5q-84 0 -176 -20v-782q0 -117 11 -162t63 -45q29 0 60.5 18.5t57.5 52.5l39 -34q-84 -129 -291 -129 q-188 0 -280 105t-92 329q0 197 54 307t165 156v26z" />
<glyph unicode="&#xe0e;" horiz-adv-x="1603" d="M23 104l36 37q29 -37 55.5 -54t59.5 -17q37 0 53.5 23.5t16.5 96.5v449q0 88 53 150.5t147 87.5v26l-282 49v33q338 158 717 158q297 0 427 -91t130 -278v-1053q0 -115 -115 -174t-272 -59h-21q-193 168 -302.5 228.5t-186.5 60.5q-145 0 -146 -137q0 -61 29 -81t86 -20 q61 0 115 33l20 -39q-86 -57 -237 -57q-266 0 -267 182q0 195 277 195q156 0 291 -69t315 -230v1280q0 96 -16.5 149t-57.5 75.5t-117 22.5q-82 0 -174 -18v-795q0 -147 -78.5 -217.5t-254.5 -70.5q-119 0 -186.5 30.5t-114.5 93.5z" />
<glyph unicode="&#xe0f;" horiz-adv-x="1603" d="M23 104l36 37q29 -37 55.5 -54t59.5 -17q37 0 53.5 23.5t16.5 96.5v449q0 88 53 150.5t147 87.5v26l-282 49v33q338 158 717 158q297 0 427 -91t130 -278v-1053q0 -115 -115 -174t-272 -59h-21l-203 238l-116 -127q-61 -68 -108.5 -95.5t-137.5 -27.5q-141 0 -220 64.5 t-79 166.5q0 29 10 74h313q-8 -35 -8 -82q0 -57 21.5 -93t68.5 -36q31 0 54.5 19.5t58.5 56.5l121 135h45l174 -205v1258q0 96 -16.5 149t-57.5 75.5t-117 22.5q-82 0 -174 -18v-795q0 -147 -78.5 -217.5t-254.5 -70.5q-119 0 -186.5 30.5t-114.5 93.5z" />
<glyph unicode="&#xe10;" horiz-adv-x="1388" d="M66 561v60h362q43 0 63.5 -18.5t32.5 -59.5l140 -490q94 10 140 143.5t46 370.5q0 250 -82 366t-268 116q-106 0 -205.5 -26t-181.5 -73l-37 54q115 66 244 102.5t327 36.5q231 0 381 -80q10 41 10 80q0 63 -18 106h227q88 0 88 -86q0 -127 -219 -159q166 -141 166 -424 q0 -162 -55.5 -284t-163.5 -196q98 -37 157.5 -113.5t59.5 -183.5q0 -113 -72.5 -169t-191.5 -56h-187l-110 135q-82 -74 -151.5 -110.5t-161.5 -36.5q-180 0 -249 72.5t-69 232.5h303q0 -238 92 -238q43 0 89 29t108 84l135 125h47l193 -233q82 4 125 43.5t43 123.5 q0 96 -53.5 166t-155.5 101q-137 -72 -338 -72h-367l-164 561h-79z" />
<glyph unicode="&#xe11;" horiz-adv-x="1617" d="M41 1094h53q0 -98 28 -150.5t81 -52.5q35 0 55.5 23.5t48.5 76.5q33 63 64.5 95t87.5 32h155q92 -25 93 -131v-26q125 88 223 135t221 47q152 0 222.5 -79t70.5 -233v-731q0 -22 9 -30.5t40 -14.5l68 -12v-43h-422q-109 0 -109 119v745q0 84 -21.5 119t-62.5 35 q-51 0 -124.5 -49t-209.5 -152v-717q0 -23 9.5 -31t40.5 -14l63 -12v-43h-643v43l68 12q31 6 40 14.5t9 30.5v340q0 63 23.5 116.5t92.5 121.5q49 47 102.5 86t168.5 115q25 18 55 36v86h-23q-121 -182 -370 -182q-111 0 -159 71t-48 204z" />
<glyph unicode="&#xe12;" horiz-adv-x="2435" d="M106 526q0 285 129.5 451t358.5 166q86 0 142.5 -32t84.5 -101q37 68 108.5 100.5t192.5 32.5q174 0 254 -77t80 -230v-613q59 -59 121.5 -96t144.5 -37q78 0 104.5 43t26.5 162v686q0 23 -9 31t-40 14l-67 12v43l487 62h43v-824q0 -174 -94 -259t-318 -85 q-135 0 -238.5 53.5t-164.5 127.5l-47 -156h-363v913q0 68 -17 99.5t-64 31.5q-45 0 -76 -38.5t-31 -108.5v-43h-74v43q0 70 -28.5 108.5t-73.5 38.5q-74 0 -110 -113.5t-36 -361.5q0 -231 44.5 -369.5t179.5 -138.5q70 0 127 39l24 -49q-49 -33 -113.5 -52t-160.5 -19 q-266 0 -396.5 136t-130.5 410z" />
<glyph unicode="&#xe13;" horiz-adv-x="2322" d="M111 952v33q336 158 700 158q299 0 429 -91t130 -278v-479q0 -115 33 -161t117 -46q68 0 120 32t101 85v776q0 23 -9.5 31t-39.5 14l-70 12v43l489 62h43v-1043q0 -22 9.5 -30.5t40.5 -14.5l67 -12v-43h-459q-68 0 -67 66v69q-66 -68 -162 -114t-221 -46 q-215 0 -310.5 86t-95.5 258v515q0 98 -16 150t-57 74.5t-119 22.5q-84 0 -176 -20v-782q0 -117 11 -162t63 -45q29 0 60.5 18.5t57.5 52.5l39 -34q-84 -129 -291 -129q-188 0 -280 105t-92 329q0 197 54 307t165 156v26z" />
<glyph unicode="&#xe14;" horiz-adv-x="1589" d="M106 510q0 328 185.5 480.5t501.5 152.5q342 0 482 -98.5t140 -290.5v-656q0 -23 9.5 -31t39.5 -14l68 -12v-41h-422q-109 0 -109 117v717q0 141 -41.5 194t-148.5 53q-121 0 -181.5 -67.5t-79 -175t-18.5 -269.5q0 -236 47.5 -372t176.5 -136q70 0 127 39l24 -49 q-49 -33 -113.5 -52t-160.5 -19q-526 0 -527 530z" />
<glyph unicode="&#xe15;" horiz-adv-x="1630" d="M106 526q0 285 129.5 451t358.5 166q86 0 142.5 -32t84.5 -101q37 68 108.5 100.5t192.5 32.5q174 0 254 -77t80 -230v-738q0 -23 9.5 -31t39.5 -14l68 -12v-41h-422q-109 0 -109 117v796q0 68 -17 99.5t-64 31.5q-45 0 -76 -38.5t-31 -108.5v-43h-74v43 q0 70 -28.5 108.5t-73.5 38.5q-74 0 -110 -113.5t-36 -361.5q0 -231 44.5 -369.5t179.5 -138.5q70 0 127 39l24 -49q-49 -33 -113.5 -52t-160.5 -19q-266 0 -396.5 136t-130.5 410z" />
<glyph unicode="&#xe16;" horiz-adv-x="1564" d="M111 952v33q336 158 710 158q305 0 437.5 -91t132.5 -278v-674q0 -23 9 -31t40 -14l67 -12v-43h-422q-109 0 -108 119v715q0 98 -17.5 150t-60.5 74.5t-125 22.5q-94 0 -186 -20v-782q0 -117 12 -162t66 -45q31 0 61.5 19.5t65.5 60.5l38 -35q-49 -68 -118.5 -102.5 t-180.5 -34.5q-195 0 -285.5 105t-90.5 329q0 197 54 307t165 156v26z" />
<glyph unicode="&#xe17;" horiz-adv-x="1597" d="M61 0v41l68 12q31 6 40 14.5t9 30.5v883q0 23 -9 31t-40 14l-68 12v43l488 62h39v-203q92 86 211 144.5t288 58.5q336 0 336 -303v-742q0 -23 9.5 -31t40.5 -14l67 -12v-41h-422q-109 0 -108 117v764q0 86 -27 118.5t-84 32.5q-84 0 -164 -49t-143 -115v-770q0 -23 9 -31 t40 -14l64 -12v-41h-644z" />
<glyph unicode="&#xe18;" horiz-adv-x="1413" d="M119 817q0 178 159.5 252t460.5 74q147 0 279.5 -15.5t200.5 -35.5l-17 -258h-139q-47 94 -87 146t-93.5 77.5t-132.5 25.5q-115 0 -167.5 -50t-52.5 -169v-149h359q150 0 235.5 -24.5t123.5 -81t38 -154.5v-215q0 -139 -148.5 -202t-430.5 -63q-92 0 -176.5 10.5 t-211.5 30.5q-125 23 -184 27v471h402v-473h118q90 0 137.5 14.5t68 53t20.5 116.5v326q0 59 -23.5 80.5t-89.5 21.5h-610q-39 78 -39 164z" />
<glyph unicode="&#xe19;" horiz-adv-x="1568" d="M53 1038v43l488 62h43v-848q0 -119 30.5 -165t118.5 -46q74 0 134.5 34t113.5 87v776q0 23 -9 31t-40 14l-68 12v43l488 62h43v-1043q0 -23 9 -31t40 -14l67 -12v-43h-458q-68 0 -68 66v69q-63 -66 -168.5 -113t-234.5 -47q-223 0 -317.5 85t-94.5 259v662q0 23 -9 31 t-40 14z" />
<glyph unicode="&#xe1a;" horiz-adv-x="1570" d="M53 1038v43l488 62h43v-848q0 -102 16 -156.5t60.5 -78t125.5 -23.5q82 0 126 23.5t60.5 79t16.5 155.5v686q0 23 -9 31t-40 14l-68 12v43l488 62h43v-787q0 -127 -57.5 -210t-192.5 -127t-367 -44q-231 0 -366 44t-192.5 127t-57.5 210v625q0 23 -9 31t-40 14z" />
<glyph unicode="&#xe1b;" horiz-adv-x="1570" d="M53 1038v43l488 62h43v-848q0 -102 16 -156.5t60.5 -78t125.5 -23.5q82 0 126 23.5t60.5 79t16.5 155.5v1206l371 47h43v-1192q0 -127 -57.5 -210t-192.5 -127t-367 -44q-231 0 -366 44t-192.5 127t-57.5 210v625q0 23 -9 31t-40 14z" />
<glyph unicode="&#xe1c;" horiz-adv-x="1769" d="M160 358v408q0 152 38 233.5t114.5 112.5t205.5 31q111 0 180.5 -35t118.5 -102l-39 -35q-35 41 -65.5 60.5t-61.5 19.5q-53 0 -65.5 -45t-12.5 -162v-537q0 -139 27 -194.5t102 -55.5q145 0 146 285v303h74v-303q0 -285 141 -285q74 0 99.5 55.5t25.5 194.5v793l371 47 h43v-789q0 -211 -105.5 -297t-310.5 -86q-152 0 -218.5 51.5t-82.5 135.5q-16 -84 -83 -135.5t-222 -51.5q-207 0 -313.5 86t-106.5 297z" />
<glyph unicode="&#xe1d;" horiz-adv-x="1769" d="M160 358v408q0 152 38 233.5t114.5 112.5t205.5 31q111 0 180.5 -35t118.5 -102l-39 -35q-35 41 -65.5 60.5t-61.5 19.5q-53 0 -65.5 -45t-12.5 -162v-537q0 -139 27 -194.5t102 -55.5q145 0 146 285v303h74v-303q0 -285 141 -285q74 0 99.5 55.5t25.5 194.5v1194l371 47 h43v-1190q0 -211 -105.5 -297t-310.5 -86q-152 0 -218.5 51.5t-82.5 135.5q-16 -84 -83 -135.5t-222 -51.5q-207 0 -313.5 86t-106.5 297z" />
<glyph unicode="&#xe1e;" horiz-adv-x="1769" d="M29 1075v43h512l114 -749l199 573h59l199 -575l105 667q6 45 27.5 64.5t74.5 19.5h422v-43l-68 -12q-45 -6 -51 -43l-166 -1020h-274l-299 856l-295 -856h-275l-166 1020q-6 37 -51 43z" />
<glyph unicode="&#xe1f;" horiz-adv-x="1748" d="M29 1075v43h512l112 -741l191 565h59l211 -555l119 1114l371 47h43l-168 -1548h-275l-330 858l-286 -858h-275l-166 1020q-6 37 -51 43z" />
<glyph unicode="&#xe20;" horiz-adv-x="1609" d="M23 104l36 37q29 -37 55.5 -54t59.5 -17q37 0 53.5 23.5t16.5 96.5v449q0 88 53 150.5t147 87.5v26l-282 49v33q338 158 717 158q297 0 427 -91t130 -278v-676q0 -23 9 -31t40 -14l67 -12v-41h-422q-109 0 -108 117v717q0 96 -16.5 149t-57.5 75.5t-117 22.5 q-82 0 -174 -18v-795q0 -147 -78.5 -217.5t-254.5 -70.5q-119 0 -186.5 30.5t-114.5 93.5z" />
<glyph unicode="&#xe21;" horiz-adv-x="1570" d="M61 0v43l68 12q31 6 40 14.5t9 30.5v881q0 23 -9 31t-40 14l-68 12v43l488 62h43v-920q59 -59 121.5 -96t144.5 -37q78 0 104.5 43t26.5 162v686q0 23 -9 31t-40 14l-68 12v43l488 62h43v-824q0 -174 -94.5 -259t-317.5 -85q-135 0 -238.5 53.5t-164.5 127.5 q0 -70 -33 -113t-96 -43h-398z" />
<glyph unicode="&#xe22;" horiz-adv-x="1523" d="M123 326q0 236 280 274q-135 23 -201.5 86.5t-66.5 175.5q0 133 103.5 203t265.5 70q94 0 155.5 -22.5t120.5 -68.5l-37 -43q-25 20 -59.5 36t-62.5 16q-74 0 -99.5 -42t-25.5 -137v-141q0 -57 30.5 -83.5t79.5 -26.5h230v-62h-230q-94 0 -94 -110v-156 q0 -102 17.5 -156.5t63.5 -78t134 -23.5t134 23.5t63.5 79t17.5 155.5v805l395 47h19v-791q0 -127 -58.5 -210t-196.5 -127t-374 -44q-233 0 -366.5 42t-185.5 119t-52 190z" />
<glyph unicode="&#xe23;" horiz-adv-x="1298" d="M98 805q0 174 163 256t421 82q113 0 225.5 -18.5t204.5 -51.5l-16 -295h-43q-41 168 -133.5 237.5t-229.5 69.5q-111 0 -172 -35.5t-61 -109.5q0 -53 28.5 -88t90 -65.5t190.5 -79.5q172 -66 257 -111t131 -110.5t46 -172.5q0 -111 -53 -183.5t-189.5 -113.5t-375.5 -41 q-111 0 -240 17.5t-207 50.5l17 299h43q53 -176 147 -242.5t231 -66.5q125 0 197 34.5t72 106.5q0 66 -31 105.5t-92.5 70.5t-190.5 78q-158 59 -242.5 101t-136 107.5t-51.5 168.5z" />
<glyph unicode="&#xe24;" horiz-adv-x="1564" d="M111 952v33q336 158 710 158q305 0 437.5 -91t132.5 -278v-1141q0 -23 9 -31t40 -14l67 -12v-43h-655v43l76 12q29 4 39 13.5t10 33.5v1199q0 98 -17.5 150t-60.5 74.5t-125 22.5q-94 0 -186 -20v-782q0 -117 12 -162t66 -45q31 0 61.5 19.5t65.5 60.5l38 -35 q-49 -68 -118.5 -102.5t-180.5 -34.5q-195 0 -285.5 105t-90.5 329q0 197 54 307t165 156v26z" />
<glyph unicode="&#xe25;" horiz-adv-x="1417" d="M74 258q0 133 77.5 219t243.5 133t434 62v137q0 129 -59 182t-180 53q-115 0 -208 -24.5t-185 -73.5l-37 53q233 143 583 144q250 0 375 -85t125 -290v-668q0 -23 9.5 -31t39.5 -14l68 -12v-43h-422q-109 0 -109 119v491q-135 -14 -207.5 -54t-101 -107.5t-28.5 -178.5 q0 -186 131 -186q39 0 71 25l25 -43q-113 -90 -307 -91q-338 0 -338 283z" />
<glyph unicode="&#xe26;" horiz-adv-x="1609" d="M23 104l36 37q29 -37 55.5 -54t59.5 -17q37 0 53.5 23.5t16.5 96.5v449q0 88 53 150.5t147 87.5v26l-282 49v33q338 158 717 158q297 0 427 -91t130 -278v-1141q0 -22 9 -30.5t40 -14.5l67 -12v-43h-655v43l76 12q29 4 39 13.5t10 33.5v1199q0 96 -16.5 149t-57.5 75.5 t-117 22.5q-82 0 -174 -18v-795q0 -147 -78.5 -217.5t-254.5 -70.5q-119 0 -186.5 30.5t-114.5 93.5z" />
<glyph unicode="&#xe27;" horiz-adv-x="1335" d="M61 1004q115 66 239 102.5t310 36.5q297 0 458 -140.5t161 -422.5q0 -322 -193.5 -461t-507.5 -139q-111 0 -210 21.5t-166 53.5l24 299h39q39 -160 111.5 -237.5t193.5 -77.5q141 0 209 130t68 398q0 250 -79 366t-255 116q-195 0 -365 -99z" />
<glyph unicode="&#xe28;" horiz-adv-x="1613" d="M57 0v43l68 12q31 6 40 14.5t9 30.5v631q0 203 144.5 307.5t486.5 104.5q256 0 414 -76q8 33 8 76q0 63 -19 106h228q88 0 88 -86q0 -125 -209 -157q121 -102 121 -275v-631q0 -22 9 -30.5t40 -14.5l67 -12v-43h-422q-109 0 -108 119v682q0 113 -15.5 171t-61.5 85.5 t-140 27.5t-140.5 -27.5t-61.5 -86t-15 -170.5v-248q55 59 109.5 94t127.5 35q51 0 86 -20v-277h-32q-129 68 -172 87.5t-66 19.5q-53 0 -53 -50v-342q0 -23 9 -31t40 -14l63 -12v-43h-643z" />
<glyph unicode="&#xe29;" horiz-adv-x="1597" d="M53 1038v43l488 62h43v-848q0 -100 18.5 -155.5t62.5 -79t128 -23.5q82 0 127 23.5t63 79t18 155.5v295h-256v49q15 31 28 49.5t38 32.5l190 -64v324q0 23 -9 31t-40 14l-67 12v43l487 62h43v-504h150v-49h-150v-234q0 -190 -141 -285.5t-481 -95.5t-481.5 95.5 t-141.5 285.5v625q0 23 -9 31t-40 14z" />
<glyph unicode="&#xe2a;" horiz-adv-x="1421" d="M74 258q0 133 77.5 219t243.5 133t434 62v137q0 129 -59 182t-180 53q-115 0 -208 -24.5t-185 -73.5l-37 53q233 143 583 144q190 0 314 -66q6 31 6 64q0 66 -19 108h228q88 0 88 -86q0 -121 -207 -157q90 -94 90 -246v-660q0 -23 9.5 -31t39.5 -14l68 -12v-43h-422 q-109 0 -109 119v491q-135 -14 -207.5 -54t-101 -107.5t-28.5 -178.5q0 -186 131 -186q39 0 71 25l25 -43q-113 -90 -307 -91q-338 0 -338 283z" />
<glyph unicode="&#xe2b;" horiz-adv-x="1552" d="M61 0v41l68 12q31 6 40 14.5t9 30.5v883q0 23 -9 31t-40 14l-68 12v43l488 62h43v-416q186 0 258 14q86 16 118.5 79t32.5 184q0 51 -24 102q43 16 104.5 28.5t120.5 12.5q113 0 159 -46t46 -138q0 -100 -87 -177t-296 -98q135 -12 210 -39.5t109.5 -86t34.5 -163.5v-301 q0 -23 9.5 -31t39.5 -14l68 -12v-41h-422q-109 0 -108 117v311q0 113 -28 166t-103 63q-55 8 -242 9v-568q0 -23 9 -31t40 -14l64 -12v-41h-644z" />
<glyph unicode="&#xe2c;" horiz-adv-x="1748" d="M29 1075v43h512l112 -741l191 565h59l211 -555l60 543q6 53 6 92q0 76 -25 106.5t-82 30.5h-112v58h124q76 0 112 30.5t44 104.5l21 186h403l-12 -137q-8 -90 -76 -151.5t-170 -82.5q86 -12 127 -67.5t41 -165.5q0 -53 -4 -84l-92 -850h-275l-330 858l-286 -858h-275 l-166 1020q-6 37 -51 43z" />
<glyph unicode="&#xe2d;" horiz-adv-x="1396" d="M111 47v508h565v-57h-168v-457h72q147 0 212.5 138t65.5 372q0 166 -30.5 271.5t-107.5 159.5t-212 54q-102 0 -187 -24.5t-171 -75.5l-37 53q113 72 239.5 113t315.5 41q307 0 464.5 -152.5t157.5 -439.5q0 -279 -155.5 -427.5t-513.5 -148.5q-88 0 -167 11.5t-192 33.5 q-123 23 -151 27z" />
<glyph unicode="&#xe2e;" horiz-adv-x="1400" d="M115 47v508h565v-57h-168v-457h72q147 0 212.5 138t65.5 372q0 166 -30.5 271.5t-107.5 159.5t-212 54q-102 0 -187 -24.5t-171 -75.5l-37 53q113 72 239.5 113t315.5 41q209 0 362 -86q12 41 13 88q0 61 -19 104h227q88 0 88 -86q0 -68 -61 -107.5t-172 -54.5 q90 -78 137 -192.5t47 -257.5q0 -279 -155.5 -427.5t-513.5 -148.5q-88 0 -167 11.5t-192 33.5q-123 23 -151 27z" />
<glyph unicode="&#xe2f;" horiz-adv-x="1441" d="M123 872v246h397v-270q0 -84 7.5 -125t31 -59.5t72.5 -18.5t101 35t87 93t35 126v219h414v-1020q0 -22 9 -30.5t40 -14.5l67 -12v-41h-651v41l76 12q29 4 39 13.5t10 33.5v609q-59 -84 -146 -132.5t-216 -48.5q-197 0 -285 86t-88 258z" />
<glyph unicode="&#xe30;" horiz-adv-x="823" d="M102 287q0 33 11 80l30 135h50v-41q2 -39 23.5 -51.5t76.5 -12.5h424l12 -16l-104 -287h-332q-82 0 -136.5 50.5t-54.5 142.5zM102 885q0 33 11 80l30 135h50v-41q2 -39 23.5 -51.5t76.5 -12.5h424l12 -16l-104 -287h-332q-82 0 -136.5 50.5t-54.5 142.5z" />
<glyph unicode="&#xe31;" d="M-920 1511q0 154 183 154q88 0 164 -29v-139q0 -55 29.5 -80.5t113.5 -25.5q287 0 493 135l29 -39q-258 -164 -620 -164q-203 0 -297.5 43t-94.5 145z" />
<glyph unicode="&#xe32;" horiz-adv-x="1130" d="M16 999q217 143 521 144q225 0 322 -90t97 -283v-670q0 -23 9.5 -31t40.5 -14l67 -12v-43h-655v43l76 12q29 4 39 13.5t10 33.5v709q0 135 -44 183t-151 48q-150 0 -297 -94z" />
<glyph unicode="&#xe33;" horiz-adv-x="1130" d="M-698 1497q0 96 81.5 138t200.5 42t201 -42t82 -138t-82 -138t-201 -42t-200.5 42t-81.5 138zM-500 1497q0 -68 20.5 -98.5t63.5 -30.5t63.5 31t20.5 98q0 68 -20.5 98.5t-63.5 30.5t-63.5 -30.5t-20.5 -98.5zM16 999q217 143 521 144q225 0 322 -90t97 -283v-670 q0 -23 9.5 -31t40.5 -14l67 -12v-43h-655v43l76 12q29 4 39 13.5t10 33.5v709q0 135 -44 183t-151 48q-150 0 -297 -94z" />
<glyph unicode="&#xe34;" d="M-1294 1335v99q31 63 108.5 106t190.5 53l827 -209v-49h-1126z" />
<glyph unicode="&#xe35;" d="M-1294 1335v99q31 63 108.5 106t190.5 53l520 -174v244h307v-328h-1126z" />
<glyph unicode="&#xe36;" d="M-1294 1335v99q31 63 108.5 106t190.5 53l510 -174q-16 29 -17 68q0 76 52.5 113.5t130.5 37.5q77 0 129.5 -37.5t52.5 -113.5t-52.5 -114t-129.5 -38h-975zM-381 1487q0 -61 13.5 -90t48.5 -29q34 0 47.5 28.5t13.5 90.5q0 61 -13.5 90t-47.5 29q-35 0 -48.5 -29 t-13.5 -90z" />
<glyph unicode="&#xe37;" d="M-1294 1335v99q30 63 108 106t191 53l381 -127v197h168v-227h110v227h168v-328h-1126z" />
<glyph unicode="&#xe38;" d="M-678 -164h393q57 0 81 -23.5t24 -78.5v-293h-365v334h-133v61z" />
<glyph unicode="&#xe39;" d="M-1139 -164h351q57 0 80.5 -23.5t23.5 -78.5v-228h61q59 0 84 14.5t25 49.5v266h336l-2 -225q-2 -70 -32 -103.5t-120 -48t-282 -14.5q-229 0 -404 45v285h-121v61z" />
<glyph unicode="&#xe3a;" d="M-545 -338q0 76 54.5 129t132.5 53t132 -53t54 -129t-54.5 -129t-131.5 -53q-78 0 -132.5 53t-54.5 129z" />
<glyph unicode="&#xe3f;" horiz-adv-x="1531" d="M53 0v41l76 16q31 6 40 14.5t9 30.5v1229q0 23 -9 31t-40 14l-76 17v41h688v204h62v-206q205 -8 324.5 -44t174 -106t54.5 -180q0 -164 -97.5 -242t-310.5 -100q180 -14 287.5 -54t159 -119t51.5 -210q0 -133 -66.5 -214t-206 -119t-370.5 -44v-205h-62v205h-688zM588 61 h153v664h-153v-664zM588 786h153v584q-12 2 -36 2h-117v-586zM803 70q229 43 229 307q0 160 -52 241.5t-177 100.5v-649zM803 801q160 53 160 301q0 213 -160 258v-559z" />
<glyph unicode="&#xe40;" horiz-adv-x="786" d="M184 203v893l363 47h43v-1012q0 -33 11 -44t48 -15l76 -9v-47q-135 -29 -250 -28q-117 0 -180.5 21.5t-87 67.5t-23.5 126z" />
<glyph unicode="&#xe41;" horiz-adv-x="1503" d="M184 203v893l363 47h43v-1012q0 -33 11 -44t48 -15l76 -9v-47q-135 -29 -250 -28q-117 0 -180.5 21.5t-87 67.5t-23.5 126zM901 203v893l363 47h43v-1012q0 -33 11 -44t48 -15l76 -9v-47q-135 -29 -250 -28q-117 0 -180.5 21.5t-87 67.5t-23.5 126z" />
<glyph unicode="&#xe42;" horiz-adv-x="909" d="M-74 1554v60q68 106 219.5 170.5t315.5 64.5q53 0 120.5 -28.5t174.5 -81.5q72 -39 111.5 -56.5t64.5 -19.5l133 66l25 -41l-338 -193q-66 0 -140.5 53.5t-165.5 139.5q-8 8 -39.5 35.5t-51 41t-29.5 13.5q-68 0 -154 -34t-123 -75q-23 -27 -22 -47q0 -41 73 -72 l443 -186q74 -31 111.5 -73t37.5 -122v-1038q0 -33 11.5 -44t48.5 -15l75 -9v-47q-135 -29 -249 -28q-117 0 -180.5 21.5t-87 67.5t-23.5 126v1124q0 49 -11.5 69.5t-50.5 35.5z" />
<glyph unicode="&#xe43;" horiz-adv-x="909" d="M-25 1552q0 145 115 228.5t334 83.5q211 0 342 -86t131 -242q0 -90 -22.5 -156.5t-63.5 -124t-119 -143.5v-981q0 -33 11.5 -44t48.5 -15l75 -9v-47q-135 -29 -249 -28q-117 0 -180.5 21.5t-87 67.5t-23.5 126v893q106 109 152 164t76 132.5t30 192.5q0 88 -55.5 139.5 t-172.5 51.5q-133 0 -207.5 -64.5t-74.5 -169.5q172 -25 287 -63v-45q-81 -80 -175 -80q-80 0 -126 51t-46 147z" />
<glyph unicode="&#xe44;" horiz-adv-x="909" d="M-131 1782l31 41l180 -125q23 2 57.5 16.5t73.5 34.5q86 45 159.5 72.5t155.5 27.5q141 0 259 -56t186 -163v-63l-211 -109q-39 -20 -53.5 -62t-14.5 -106v-1159q0 -33 11.5 -44t48.5 -15l75 -9v-47q-135 -29 -249 -28q-117 0 -180.5 21.5t-87 67.5t-23.5 126v897 q0 72 22.5 121t61.5 81.5t108 73.5l318 187q37 23 55 41t18 43q0 35 -43 59.5t-92 30.5q-31 0 -80 -21.5t-133 -66.5q-106 -57 -181 -89t-134 -32z" />
<glyph unicode="&#xe45;" horiz-adv-x="1130" d="M16 999q217 143 521 144q225 0 322 -90t97 -283v-1137q0 -23 9.5 -31t40.5 -14l67 -12v-43h-655v43l76 12q29 4 39 13.5t10 33.5v1176q0 135 -44 183t-151 48q-150 0 -297 -94z" />
<glyph unicode="&#xe46;" horiz-adv-x="1556" d="M94 733q0 172 96.5 291t301.5 119q96 0 153 -31t86 -102q37 68 108.5 100.5t192.5 32.5q174 0 254 -77t80 -230v-1203q0 -23 9 -31t40 -14l68 -12v-43h-656v43l76 12q29 4 39 13.5t10 33.5v1278q0 68 -17 99.5t-65 31.5q-45 0 -75.5 -38.5t-30.5 -108.5v-43h-74v43 q0 72 -29.5 109.5t-78.5 37.5q-70 0 -105 -83.5t-35 -206.5q0 -135 37 -209t131 -74q35 0 60.5 7t54.5 28l25 -49q-100 -68 -279 -68q-377 0 -377 344z" />
<glyph unicode="&#xe47;" d="M-1137 1528q0 119 76 184.5t234 65.5h254q84 0 141 21.5t106 70.5l47 -66q-80 -72 -284 -71h-172q-70 0 -104.5 -17.5t-46 -53.5t-11.5 -103v-175h43q63 0 95 39t42 123h49q8 -80 41 -118.5t82 -38.5q47 0 59.5 21.5t12.5 84.5v109h201v-97q0 -84 -47.5 -130t-141.5 -46 q-115 0 -166 35t-65 96q-8 -51 -50 -89t-118 -38h-174q-43 31 -73 84.5t-30 108.5z" />
<glyph unicode="&#xe48;" d="M-551 1335v385l318 35h32v-420h-350z" />
<glyph unicode="&#xe49;" d="M-915 1335v54l55 10q66 12 93.5 29.5t27.5 50.5q0 41 -34 56t-116 15v152q94 33 166 33q96 0 145.5 -36t49.5 -116q0 -125 -119 -170h33q137 0 239.5 84t118.5 221l274 -59q-41 -164 -216 -244t-412 -80h-305z" />
<glyph unicode="&#xe4a;" d="M-1225 1507q0 98 57.5 155.5t170.5 57.5q80 0 133 -36.5t67 -90.5q12 51 64.5 89t134.5 38q111 0 168 -57t57 -141q0 -82 -26 -136h14q59 0 87 88.5t46 243.5l232 -61q-29 -119 -72 -187.5t-121 -101.5t-213 -33h-125q-41 0 -56.5 17.5t-15.5 56.5v115q0 45 -20.5 69.5 t-48.5 24.5q-31 0 -51.5 -35t-28.5 -98h-53q-8 61 -32 97t-54 36q-59 0 -60 -94v-189h-104q-63 0 -106.5 42t-43.5 130z" />
<glyph unicode="&#xe4b;" d="M-741 1518v53h198v162l301 30h33v-192h197v-53h-197v-183h-334v183h-198z" />
<glyph unicode="&#xe4c;" d="M-672 1489q0 70 39 114t97.5 70.5t166.5 63.5q84 27 140.5 48t109.5 50l35 -49q-139 -76 -200.5 -146.5t-61.5 -154.5q0 -45 14.5 -65.5t48.5 -20.5q33 0 49.5 6t22.5 8l18 -53q-114 -37 -237 -37q-125 0 -183.5 46t-58.5 120z" />
<glyph unicode="&#xe4d;" d="M-698 1497q0 96 81.5 138t200.5 42t201 -42t82 -138t-82 -138t-201 -42t-200.5 42t-81.5 138zM-500 1497q0 -68 20.5 -98.5t63.5 -30.5t63.5 31t20.5 98q0 68 -20.5 98.5t-63.5 30.5t-63.5 -30.5t-20.5 -98.5z" />
<glyph unicode="&#xe4e;" d="M-930 1458q0 86 78 130t229 63q-98 12 -160.5 42.5t-62.5 90.5q0 65 66.5 103t179.5 38l41 -2l158 -10v-35h-119q-43 0 -74 -24.5t-31 -57.5q0 -63 33 -91t123 -40v-23q-96 -14 -153.5 -57t-57.5 -115q0 -43 24.5 -70.5t65.5 -27.5q72 0 131 19l13 -31q-94 -43 -240 -43 q-121 0 -182.5 41t-61.5 100z" />
<glyph unicode="&#xe4f;" horiz-adv-x="1171" d="M123 561q0 127 61.5 232.5t168 168t233.5 62.5t233.5 -62.5t168 -168t61.5 -232.5t-61.5 -232.5t-168 -168t-233.5 -62.5t-233.5 62.5t-168 168t-61.5 232.5zM180 561q0 -108 54.5 -201.5t147.5 -148.5t204 -55t204 55t147 148.5t54 201.5q0 109 -53 202t-146.5 148.5 t-205.5 55.5q-111 0 -204 -55.5t-147.5 -148.5t-54.5 -202zM299 561q0 78 38 143.5t103.5 104.5t145.5 39t145.5 -39t103 -104.5t37.5 -143.5t-37.5 -143.5t-103 -104.5t-145.5 -39t-145.5 39t-103.5 104.5t-38 143.5zM414 561q0 -72 49 -122t123 -50t123 50t49 122 t-49.5 122t-122.5 50q-74 0 -123 -50t-49 -122z" />
<glyph unicode="&#xe50;" horiz-adv-x="1466" d="M115 492q0 256 169 386t449 130q281 0 450 -130t169 -386t-169 -386.5t-450 -130.5t-449.5 130.5t-168.5 386.5zM504 492q0 -176 20.5 -275.5t69.5 -142.5t139 -43t139.5 43t70 142t20.5 276q0 176 -20.5 275t-70 142t-139.5 43t-139 -43t-69.5 -142t-20.5 -275z" />
<glyph unicode="&#xe51;" horiz-adv-x="1400" d="M98 625q0 109 65.5 195.5t191.5 137t300 50.5q281 0 456 -128t175 -374q0 -266 -178 -404.5t-465 -138.5q-57 0 -118.5 10.5t-110.5 28.5l16 45q76 -25 160 -24q152 0 229.5 111.5t77.5 373.5q0 240 -55.5 342t-190.5 102q-125 0 -178 -85t-53 -257q0 -127 36 -186 t109 -59q76 0 129 81l43 -24q-39 -66 -101.5 -98.5t-166.5 -32.5q-152 0 -261.5 76.5t-109.5 257.5z" />
<glyph unicode="&#xe52;" horiz-adv-x="1826" d="M156 420v1001l362 45h19v-1087q0 -143 36.5 -218t117.5 -102.5t227 -27.5q145 0 226 27.5t117.5 102.5t36.5 218v420q0 84 -25.5 113.5t-84.5 29.5q-78 0 -133 -43q31 -57 30 -141v-277l-229 -41h-25v359q0 88 -18 119.5t-70 31.5q-57 0 -116 -43l-21 35q92 66 213 66 q147 0 211 -74q92 74 287 74q362 0 362 -289v-299q0 -238 -193.5 -341.5t-567.5 -103.5q-375 0 -568.5 103.5t-193.5 341.5z" />
<glyph unicode="&#xe53;" horiz-adv-x="1695" d="M119 420q0 322 149.5 455t374.5 133q90 0 152.5 -14.5t109.5 -43.5q37 25 106.5 41.5t170.5 16.5q362 0 362 -289v-719h-381v819q0 68 -23.5 93.5t-72.5 25.5q-68 0 -117 -25v-493l-196 -41h-25v420q0 88 -24.5 122.5t-88.5 34.5q-59 0 -108 -16v-661q0 -111 21.5 -161 t84.5 -50q51 0 109 34l31 -41q-53 -41 -118 -61t-161 -20q-178 0 -267 117.5t-89 322.5z" />
<glyph unicode="&#xe54;" horiz-adv-x="1404" d="M115 479q0 256 168 380t450 124h107q76 0 109.5 8t46 37t12.5 92v221l342 43h18v-202q0 -104 -53 -159.5t-147.5 -75t-241.5 -19.5h-193q-90 0 -139 -39t-69.5 -134.5t-20.5 -271.5t20.5 -273t69.5 -138t139 -41h55v461h478v-52h-133v-288q0 -41 14 -57.5t47 -22.5 l178 -37l-16 -53l-299 61q-45 -12 -68 -20q-90 -25 -140 -36.5t-116 -11.5q-283 0 -450.5 124t-167.5 380z" />
<glyph unicode="&#xe55;" horiz-adv-x="1404" d="M115 479q0 215 119.5 336t330.5 156q-33 27 -51 65.5t-18 83.5q0 80 54 135.5t136 55.5t136.5 -55.5t54.5 -135.5q0 -82 -56 -137h31q76 0 109.5 8t46 37t12.5 92v221l342 43h18v-202q0 -104 -53 -159.5t-147.5 -75t-241.5 -19.5h-205q-90 0 -139 -39t-69.5 -134.5 t-20.5 -271.5t20.5 -273t69.5 -138t139 -41h55v461h478v-52h-133v-288q0 -41 14 -57.5t47 -22.5l178 -37l-16 -53l-299 61q-45 -12 -68 -20q-90 -25 -140 -36.5t-116 -11.5q-283 0 -450.5 124t-167.5 380zM553 1120q0 -57 37 -96t96 -39t96 39t37 96t-37 96t-96 39 t-96 -38.5t-37 -96.5z" />
<glyph unicode="&#xe56;" horiz-adv-x="1409" d="M70 1421l362 45h19q20 -88 31.5 -200.5t11.5 -216.5l-2 -68q39 12 104.5 19.5t134.5 7.5q158 0 286 -55.5t202.5 -166t74.5 -272.5q0 -172 -83 -292t-229 -181t-331 -61q-39 0 -131 16q-115 16 -203 25.5t-186 9.5v461h344v-447q68 -6 123 -6q307 0 307 477 q0 229 -67.5 326.5t-219.5 97.5q-109 0 -202.5 -30.5t-204.5 -90.5h-80q2 309 -61 602z" />
<glyph unicode="&#xe57;" horiz-adv-x="2117" d="M119 440q0 567 473 568q76 0 111.5 -15.5t60.5 -46.5q78 61 250 62q178 0 260 -79t82 -210v-686q90 6 138 38.5t67.5 105.5t19.5 206v1038l363 45h18v-1042q0 -231 -160 -337.5t-416 -106.5q-68 0 -132 7t-117 15q-98 16 -146 18v799q0 70 -21.5 94.5t-70.5 24.5 q-35 0 -61.5 -11.5t-55.5 -35.5v-266h-61v174q0 88 -23.5 122.5t-85.5 34.5q-55 0 -104 -16v-661q0 -111 21.5 -161t84.5 -50q51 0 109 34l31 -41q-53 -41 -118 -61t-161 -20q-176 0 -266 125.5t-90 334.5z" />
<glyph unicode="&#xe58;" horiz-adv-x="1560" d="M115 479q0 256 168 380t450 124h189q76 0 109.5 8t46 37t12.5 92v221l342 43h18v-202q0 -104 -53.5 -159.5t-147.5 -75t-241 -19.5h-275q-90 0 -139 -39t-69.5 -134.5t-20.5 -271.5q0 -244 53 -334t156 -90q63 0 95 64.5t32 187.5v88h67v-88q0 -123 33 -187.5t94 -64.5 q84 0 122 70t38 211q0 125 -28.5 186.5t-94.5 61.5q-51 0 -100 -29l-23 53q86 50 215 50q152 0 240 -87.5t88 -228.5q0 -197 -90 -279.5t-266 -82.5q-127 0 -185.5 36.5t-77.5 104.5q-37 -141 -219 -141q-129 0 -253 52t-204.5 163.5t-80.5 279.5z" />
<glyph unicode="&#xe59;" horiz-adv-x="1642" d="M119 420q0 324 142 456t364 132q117 0 241.5 -22.5t196.5 -72.5l51 -155q33 -4 43 -4q53 0 72.5 24.5t19.5 79.5v483l342 43h19v-432q0 -139 -78 -210.5t-219 -71.5q-88 0 -178 22l231 -692h-358l-281 850q-20 55 -45 80.5t-82 25.5q-55 0 -92 -12v-665q0 -109 23.5 -160 t95.5 -51q66 0 123 34l30 -41q-53 -41 -120.5 -61t-172.5 -20q-184 0 -276 117.5t-92 322.5z" />
<glyph unicode="&#xe5a;" horiz-adv-x="2097" d="M123 872v246h397v-270q0 -84 7.5 -125t31 -59.5t72.5 -18.5t102 35t89 93t36 126v219h410v-508q51 8 109.5 50t97 105.5t38.5 133.5v219h410v-1020q0 -23 9.5 -31t39.5 -14l68 -12v-41h-418q-109 0 -109 119v590q-89 -129 -245 -166v-445q0 -23 9 -31t40 -14l67 -12v-41 h-651v41l76 12q29 4 39 13.5t10 33.5v609q-59 -84 -146 -132.5t-216 -48.5q-197 0 -285 86t-88 258z" />
<glyph unicode="&#xe5b;" horiz-adv-x="2605" d="M119 541q0 244 139 390t408 146q156 0 241.5 -85t81.5 -251h-61q0 133 -58.5 193.5t-140.5 60.5q-133 0 -196.5 -117.5t-63.5 -322.5q0 -215 74.5 -309t242.5 -94q422 0 408 743h66l249 -469l142 367h59l156 -293l108 284h64q8 -109 49 -159t98.5 -62t157.5 -12h209v-35 l-357 -76q-49 -8 -67 -8q-55 0 -100.5 25.5t-79.5 85.5l-101 -281h-65l-152 301l-141 -381h-66l-190 381q-37 -248 -172 -381t-402 -133q-238 0 -389 123t-151 369z" />
<glyph unicode="&#x1e0c;" horiz-adv-x="1675" d="M53 0v41l76 16q31 6 40 14.5t9 30.5v1229q0 23 -9 31t-40 14l-76 17v41h627q430 0 655.5 -162t225.5 -555t-225.5 -555t-655.5 -162h-627zM596 61h84q170 0 262 60.5t129 200t37 395.5t-37 395t-129 199.5t-262 60.5h-84v-1311zM627 -272q0 74 47 113.5t123 39.5t123 -40 t47 -113q0 -74 -47.5 -114t-122.5 -40q-76 0 -123 40t-47 114z" />
<glyph unicode="&#x1e0d;" horiz-adv-x="1527" d="M102 508q0 264 133.5 388t360.5 124q123 0 206 -28.5t146 -73.5v417q0 23 -9 31t-40 14l-72 17v37l492 61h39v-1397q0 -23 9 -31t40 -14l72 -16v-37h-422q-56 0 -80.5 28.5t-24.5 86.5q-131 -139 -356 -140q-225 0 -359.5 129t-134.5 404zM524 508q0 -162 17.5 -257 t59.5 -141.5t116 -46.5q120 0 231 115v678q-98 78 -221 78q-113 0 -158 -99.5t-45 -326.5zM614 -272q0 74 47.5 113.5t122.5 39.5q76 0 123 -40t47 -113q0 -74 -47 -114t-123 -40q-75 0 -122.5 40t-47.5 114z" />
<glyph unicode="&#x1e0e;" horiz-adv-x="1675" d="M53 0v41l76 16q31 6 40 14.5t9 30.5v1229q0 23 -9 31t-40 14l-76 17v41h627q430 0 655.5 -162t225.5 -555t-225.5 -555t-655.5 -162h-627zM428 -147h778v-50h-778v50zM596 61h84q170 0 262 60.5t129 200t37 395.5t-37 395t-129 199.5t-262 60.5h-84v-1311z" />
<glyph unicode="&#x1e0f;" horiz-adv-x="1527" d="M102 508q0 264 133.5 388t360.5 124q123 0 206 -28.5t146 -73.5v417q0 23 -9 31t-40 14l-72 17v37l492 61h39v-1397q0 -23 9 -31t40 -14l72 -16v-37h-422q-56 0 -80.5 28.5t-24.5 86.5q-131 -139 -356 -140q-225 0 -359.5 129t-134.5 404zM395 -147h779v-50h-779v50z M524 508q0 -162 17.5 -257t59.5 -141.5t116 -46.5q120 0 231 115v678q-98 78 -221 78q-113 0 -158 -99.5t-45 -326.5z" />
<glyph unicode="&#x1e20;" horiz-adv-x="1617" d="M115 737q0 371 223 546t588 175q152 0 294 -26.5t222 -65.5l-29 -352h-57q-57 174 -156.5 279.5t-271.5 105.5q-195 0 -279 -152.5t-84 -455.5q0 -263 47 -421.5t154.5 -232.5t290.5 -74h65v504h-202v62h559v-539q-45 -8 -107.5 -23.5t-95.5 -23.5q-135 -35 -216 -51.5 t-151 -16.5q-219 0 -397 75t-287.5 245t-109.5 442zM522 1593v49h778v-49h-778z" />
<glyph unicode="&#x1e21;" horiz-adv-x="1417" d="M119 -223q0 86 67.5 133t178.5 61q-233 55 -234 219q0 178 217 218q-193 84 -192 278q0 178 140 254t400 76q125 -4 217 -21q59 90 166 148.5t256 58.5l-49 -235h-22l-52 14q-82 23 -143 23q-57 0 -92 -23q260 -74 260 -295q0 -178 -141.5 -257t-399.5 -79 q-145 0 -252 27q-63 -4 -111 -21.5t-48 -46.5q0 -31 26.5 -46t84 -24.5t190.5 -21.5l348 -33q147 -14 234 -46t127 -92t40 -159q0 -131 -95 -216t-244.5 -124t-319.5 -39q-244 0 -400.5 67t-156.5 202zM319 1196v49h779v-49h-779zM399 -186q0 -127 61.5 -188.5t229.5 -61.5 q197 0 305.5 48t108.5 142q0 53 -21.5 81t-70.5 43.5t-146 25.5l-288 33q-109 14 -152 22q-27 -57 -27 -145zM532 686q0 -147 34 -216t130 -69q97 0 130.5 69t33.5 216q0 141 -33.5 210t-130.5 69q-96 0 -130 -69t-34 -210z" />
<glyph unicode="&#x1e24;" horiz-adv-x="1728" d="M53 0v41l76 16q31 6 40 14.5t9 30.5v1229q0 23 -9 31t-40 14l-76 17v41h664v-41l-74 -17q-29 -4 -38 -12t-9 -31v-569h537v569q0 23 -9.5 31t-38.5 12l-73 17v41h663v-41l-76 -17q-31 -6 -40 -14t-9 -31v-1229q0 -23 9.5 -31t39.5 -14l76 -16v-41h-663v41l73 16 q29 6 38.5 13.5t9.5 29.5v602h-537v-602q0 -23 9 -30t38 -13l74 -16v-41h-664zM694 -272q0 74 47 113.5t123 39.5t123 -40t47 -113q0 -74 -47 -114t-123 -40t-123 40t-47 114z" />
<glyph unicode="&#x1e25;" horiz-adv-x="1536" d="M49 0v37l72 16q31 6 40 14.5t9 30.5v1237q0 23 -9 31t-40 14l-72 17v37l492 61h39v-627q78 63 188.5 107.5t247.5 44.5q190 0 272 -80t82 -240v-602q0 -22 9.5 -30.5t39.5 -14.5l72 -16v-37h-426q-55 0 -79.5 28.5t-24.5 86.5v622q0 92 -30 131t-100 39q-123 0 -251 -102 v-707q0 -23 9 -32t38 -15l69 -14v-37h-647zM598 -272q0 74 47 113.5t123 39.5t123 -40t47 -113q0 -74 -47 -114t-123 -40t-123 40t-47 114z" />
<glyph unicode="&#x1e2a;" horiz-adv-x="1728" d="M53 0v41l76 16q31 6 40 14.5t9 30.5v1229q0 23 -9 31t-40 14l-76 17v41h664v-41l-74 -17q-29 -4 -38 -12t-9 -31v-569h537v569q0 23 -9.5 31t-38.5 12l-73 17v41h663v-41l-76 -17q-31 -6 -40 -14t-9 -31v-1229q0 -23 9.5 -31t39.5 -14l76 -16v-41h-663v41l73 16 q29 6 38.5 13.5t9.5 29.5v602h-537v-602q0 -23 9 -30t38 -13l74 -16v-41h-664zM582 -84h41q20 -82 72.5 -119t168.5 -37q117 0 169 37t73 119h41q-4 -147 -73.5 -230t-209.5 -83q-139 0 -208.5 83t-73.5 230z" />
<glyph unicode="&#x1e2b;" horiz-adv-x="1536" d="M49 0v37l72 16q31 6 40 14.5t9 30.5v1237q0 23 -9 31t-40 14l-72 17v37l492 61h39v-627q78 63 188.5 107.5t247.5 44.5q190 0 272 -80t82 -240v-602q0 -22 9.5 -30.5t39.5 -14.5l72 -16v-37h-426q-55 0 -79.5 28.5t-24.5 86.5v622q0 92 -30 131t-100 39q-123 0 -251 -102 v-707q0 -23 9 -32t38 -15l69 -14v-37h-647zM485 -84h41q20 -82 72.5 -119t169.5 -37t169 37t73 119h41q-4 -147 -74 -230t-209 -83t-209 83t-74 230z" />
<glyph unicode="&#x1e36;" horiz-adv-x="1368" d="M53 0v41l76 16q31 6 40 14.5t9 30.5v1229q0 23 -9 31t-40 14l-76 17v41h680v-41l-88 -19q-31 -6 -40 -14t-9 -31v-1268h258q121 0 188.5 37t105.5 104.5t85 205.5h57v-408h-1237zM535 -272q0 74 47 113.5t123 39.5t122.5 -40t46.5 -113q0 -74 -47 -114t-122 -40 q-76 0 -123 40t-47 114z" />
<glyph unicode="&#x1e37;" horiz-adv-x="749" d="M49 0v37l72 16q31 6 40 14.5t9 30.5v1237q0 23 -9 31t-40 14l-72 17v37l492 61h39v-1397q0 -23 9 -31t40 -14l71 -16v-37h-651zM205 -272q0 74 47 113.5t123 39.5t123 -40t47 -113q0 -74 -47 -114t-123 -40t-123 40t-47 114z" />
<glyph unicode="&#x1e38;" horiz-adv-x="1368" d="M53 0v41l76 16q31 6 40 14.5t9 30.5v1229q0 23 -9 31t-40 14l-76 17v41h680v-41l-88 -19q-31 -6 -40 -14t-9 -31v-1268h258q121 0 188.5 37t105.5 104.5t85 205.5h57v-408h-1237zM295 1593v49h778v-49h-778zM535 -272q0 74 47 113.5t123 39.5t122.5 -40t46.5 -113 q0 -74 -47 -114t-122 -40q-76 0 -123 40t-47 114z" />
<glyph unicode="&#x1e39;" horiz-adv-x="749" d="M-14 1593v49h778v-49h-778zM49 0v37l72 16q31 6 40 14.5t9 30.5v1237q0 23 -9 31t-40 14l-72 17v37l492 61h39v-1397q0 -23 9 -31t40 -14l71 -16v-37h-651zM205 -272q0 74 47 113.5t123 39.5t123 -40t47 -113q0 -74 -47 -114t-123 -40t-123 40t-47 114z" />
<glyph unicode="&#x1e3a;" horiz-adv-x="1368" d="M53 0v41l76 16q31 6 40 14.5t9 30.5v1229q0 23 -9 31t-40 14l-76 17v41h680v-41l-88 -19q-31 -6 -40 -14t-9 -31v-1268h258q121 0 188.5 37t105.5 104.5t85 205.5h57v-408h-1237zM336 -147h778v-50h-778v50z" />
<glyph unicode="&#x1e3b;" horiz-adv-x="749" d="M-14 -147h778v-50h-778v50zM49 0v37l72 16q31 6 40 14.5t9 30.5v1237q0 23 -9 31t-40 14l-72 17v37l492 61h39v-1397q0 -23 9 -31t40 -14l71 -16v-37h-651z" />
<glyph unicode="&#x1e42;" horiz-adv-x="1970" d="M53 0v41l76 16q31 6 40 14.5t9 30.5v1229q0 23 -9 31t-40 14l-76 17v41h525l421 -912l377 912h541v-41l-76 -17q-31 -6 -40 -14t-9 -31v-1229q0 -23 9 -31t40 -14l76 -16v-41h-664v41l74 16q29 6 38 13.5t9 29.5v1160l-520 -1260h-61l-549 1206v-1106q0 -23 9 -30t38 -13 l74 -16v-41h-312zM659 -272q0 74 47.5 113.5t122.5 39.5q76 0 123 -40t47 -113q0 -74 -47 -114t-123 -40q-75 0 -122.5 40t-47.5 114z" />
<glyph unicode="&#x1e43;" horiz-adv-x="2269" d="M49 0v37l72 16q31 6 40 14.5t9 30.5v774q0 23 -9 31t-40 15l-72 16v37l492 61h34v-143q78 55 182.5 93t229.5 38q254 0 324 -152q78 63 189.5 107.5t248.5 44.5q190 0 272 -80t82 -240v-602q0 -23 9.5 -31t39.5 -14l72 -16v-37h-426q-55 0 -79.5 28.5t-24.5 86.5v622 q0 92 -30 131t-99 39q-111 0 -236 -90q12 -51 12 -117v-602q0 -23 9.5 -31t40.5 -14l71 -16v-37h-426q-55 0 -79.5 28.5t-24.5 86.5v622q0 92 -30 131t-99 39q-109 0 -223 -82v-727q0 -23 9 -32t38 -15l69 -14v-37h-647zM965 -272q0 74 47 113.5t123 39.5t123 -40t47 -113 q0 -74 -47.5 -114t-122.5 -40q-76 0 -123 40t-47 114z" />
<glyph unicode="&#x1e44;" horiz-adv-x="1523" d="M53 0v41l76 16q31 6 40 14.5t9 30.5v1229q0 23 -9 31t-40 14l-76 17v41h568l659 -832v731q0 23 -9 30t-38 13l-74 17v41h311v-41l-75 -17q-31 -6 -40 -14t-9 -31v-1331h-74l-1028 1300v-1200q0 -23 9 -30t38 -13l74 -16v-41h-312zM604 1716q0 76 49 115t129 39t129.5 -39 t49.5 -115t-49.5 -114.5t-129.5 -38.5t-129 38.5t-49 114.5z" />
<glyph unicode="&#x1e45;" horiz-adv-x="1536" d="M49 0v37l72 16q31 6 40 14.5t9 30.5v774q0 23 -9 31t-40 15l-72 16v37l492 61h34v-166q78 63 191 108.5t250 45.5q190 0 272 -80t82 -240v-602q0 -22 9.5 -30.5t39.5 -14.5l72 -16v-37h-426q-55 0 -79.5 28.5t-24.5 86.5v622q0 92 -30 131t-100 39q-123 0 -251 -102v-707 q0 -23 9 -32t38 -15l69 -14v-37h-647zM590 1319q0 76 49 115t129 39t129 -39t49 -115t-49 -115t-129 -39t-129 39t-49 115z" />
<glyph unicode="&#x1e46;" horiz-adv-x="1523" d="M53 0v41l76 16q31 6 40 14.5t9 30.5v1229q0 23 -9 31t-40 14l-76 17v41h568l659 -832v731q0 23 -9 30t-38 13l-74 17v41h311v-41l-75 -17q-31 -6 -40 -14t-9 -31v-1331h-74l-1028 1300v-1200q0 -23 9 -30t38 -13l74 -16v-41h-312zM612 -272q0 74 47.5 113.5t122.5 39.5 q76 0 123 -40t47 -113q0 -74 -47 -114t-123 -40q-75 0 -122.5 40t-47.5 114z" />
<glyph unicode="&#x1e47;" horiz-adv-x="1536" d="M49 0v37l72 16q31 6 40 14.5t9 30.5v774q0 23 -9 31t-40 15l-72 16v37l492 61h34v-166q78 63 191 108.5t250 45.5q190 0 272 -80t82 -240v-602q0 -22 9.5 -30.5t39.5 -14.5l72 -16v-37h-426q-55 0 -79.5 28.5t-24.5 86.5v622q0 92 -30 131t-100 39q-123 0 -251 -102v-707 q0 -23 9 -32t38 -15l69 -14v-37h-647zM598 -272q0 74 47 113.5t123 39.5t123 -40t47 -113q0 -74 -47 -114t-123 -40t-123 40t-47 114z" />
<glyph unicode="&#x1e48;" horiz-adv-x="1523" d="M53 0v41l76 16q31 6 40 14.5t9 30.5v1229q0 23 -9 31t-40 14l-76 17v41h568l659 -832v731q0 23 -9 30t-38 13l-74 17v41h311v-41l-75 -17q-31 -6 -40 -14t-9 -31v-1331h-74l-1028 1300v-1200q0 -23 9 -30t38 -13l74 -16v-41h-312zM336 -147h778v-50h-778v50z" />
<glyph unicode="&#x1e49;" horiz-adv-x="1536" d="M49 0v37l72 16q31 6 40 14.5t9 30.5v774q0 23 -9 31t-40 15l-72 16v37l492 61h34v-166q78 63 191 108.5t250 45.5q190 0 272 -80t82 -240v-602q0 -22 9.5 -30.5t39.5 -14.5l72 -16v-37h-426q-55 0 -79.5 28.5t-24.5 86.5v622q0 92 -30 131t-100 39q-123 0 -251 -102v-707 q0 -23 9 -32t38 -15l69 -14v-37h-647zM336 -147h778v-50h-778v50z" />
<glyph unicode="&#x1e5a;" horiz-adv-x="1630" d="M53 0v41l76 16q31 6 40 14.5t9 30.5v1229q0 23 -9 31t-40 14l-76 17v41h602q274 0 436 -36t236 -118t74 -223q0 -158 -94.5 -243t-305.5 -116q121 -8 194 -38.5t114 -97t63 -183.5l23 -123q16 -88 23 -119t20.5 -47t42.5 -16q51 0 86 76l43 -37q-29 -59 -87.5 -96 t-189.5 -37t-206.5 28.5t-118.5 101t-66 209.5l-24 154q-17 100 -38.5 140t-68.5 53.5t-156 13.5h-59v-576q0 -23 9 -30.5t40 -14.5l88 -18v-41h-680zM596 741h78q119 0 183.5 33t89 100.5t24.5 182.5t-24.5 182.5t-89 100t-183.5 32.5h-78v-631zM657 -272q0 74 47.5 113.5 t122.5 39.5q76 0 123 -40t47 -113q0 -74 -47 -114t-123 -40q-75 0 -122.5 40t-47.5 114z" />
<glyph unicode="&#x1e5b;" horiz-adv-x="1105" d="M49 0v37l72 16q31 6 40 14.5t9 30.5v774q0 23 -9 31t-40 15l-72 16v37l492 61h34v-201q179 183 363 183q68 0 106 -17l-30 -319h-15l-419 92v-672q0 -23 9 -32t38 -15l69 -14v-37h-647zM201 -272q0 74 47 113.5t123 39.5t123 -40t47 -113q0 -74 -47.5 -114t-122.5 -40 q-76 0 -123 40t-47 114z" />
<glyph unicode="&#x1e5c;" horiz-adv-x="1630" d="M53 0v41l76 16q31 6 40 14.5t9 30.5v1229q0 23 -9 31t-40 14l-76 17v41h602q274 0 436 -36t236 -118t74 -223q0 -158 -94.5 -243t-305.5 -116q121 -8 194 -38.5t114 -97t63 -183.5l23 -123q16 -88 23 -119t20.5 -47t42.5 -16q51 0 86 76l43 -37q-29 -59 -87.5 -96 t-189.5 -37t-206.5 28.5t-118.5 101t-66 209.5l-24 154q-17 100 -38.5 140t-68.5 53.5t-156 13.5h-59v-576q0 -23 9 -30.5t40 -14.5l88 -18v-41h-680zM426 1593v49h778v-49h-778zM596 741h78q119 0 183.5 33t89 100.5t24.5 182.5t-24.5 182.5t-89 100t-183.5 32.5h-78v-631z M657 -272q0 74 47.5 113.5t122.5 39.5q76 0 123 -40t47 -113q0 -74 -47 -114t-123 -40q-75 0 -122.5 40t-47.5 114z" />
<glyph unicode="&#x1e5d;" horiz-adv-x="1105" d="M49 0v37l72 16q31 6 40 14.5t9 30.5v774q0 23 -9 31t-40 15l-72 16v37l492 61h34v-201q179 183 363 183q68 0 106 -17l-30 -319h-15l-419 92v-672q0 -23 9 -32t38 -15l69 -14v-37h-647zM164 1196v49h778v-49h-778zM201 -272q0 74 47 113.5t123 39.5t123 -40t47 -113 q0 -74 -47.5 -114t-122.5 -40q-76 0 -123 40t-47 114z" />
<glyph unicode="&#x1e5e;" horiz-adv-x="1630" d="M53 0v41l76 16q31 6 40 14.5t9 30.5v1229q0 23 -9 31t-40 14l-76 17v41h602q274 0 436 -36t236 -118t74 -223q0 -158 -94.5 -243t-305.5 -116q121 -8 194 -38.5t114 -97t63 -183.5l23 -123q16 -88 23 -119t20.5 -47t42.5 -16q51 0 86 76l43 -37q-29 -59 -87.5 -96 t-189.5 -37t-206.5 28.5t-118.5 101t-66 209.5l-24 154q-17 100 -38.5 140t-68.5 53.5t-156 13.5h-59v-576q0 -23 9 -30.5t40 -14.5l88 -18v-41h-680zM446 -147h779v-50h-779v50zM596 741h78q119 0 183.5 33t89 100.5t24.5 182.5t-24.5 182.5t-89 100t-183.5 32.5h-78v-631z " />
<glyph unicode="&#x1e5f;" horiz-adv-x="1105" d="M-14 -147h778v-50h-778v50zM49 0v37l72 16q31 6 40 14.5t9 30.5v774q0 23 -9 31t-40 15l-72 16v37l492 61h34v-201q179 183 363 183q68 0 106 -17l-30 -319h-15l-419 92v-672q0 -23 9 -32t38 -15l69 -14v-37h-647z" />
<glyph unicode="&#x1e60;" horiz-adv-x="1388" d="M115 1063q0 197 139 296t442 99q135 0 261 -26.5t212 -67.5l-49 -313h-55q-39 125 -81 198.5t-113.5 113.5t-190.5 40q-270 0 -270 -176q0 -72 32.5 -119t98 -85t217.5 -112l41 -18q190 -92 281 -149.5t144.5 -142.5t53.5 -220q0 -201 -150.5 -303.5t-472.5 -102.5 q-129 0 -285.5 29t-242.5 70l55 360h54q27 -160 80 -248t132.5 -121.5t196.5 -33.5q133 0 207 51t74 147q0 78 -34 129.5t-103.5 94.5t-204.5 102q-172 76 -266.5 134.5t-148.5 147.5t-54 226zM516 1716q0 76 49 115t129 39t129 -39t49 -115t-49 -114.5t-129 -38.5 t-129 38.5t-49 114.5z" />
<glyph unicode="&#x1e61;" horiz-adv-x="1138" d="M98 717q0 154 115 228.5t348 74.5q119 0 233.5 -23.5t178.5 -54.5l-25 -246h-35q-55 137 -133 208t-225 71q-94 0 -145.5 -25.5t-51.5 -93.5q0 -47 24 -75.5t74 -53.5t167 -72q168 -68 254 -117t126.5 -112.5t40.5 -159.5q0 -154 -117.5 -222.5t-353.5 -68.5 q-125 0 -261 24t-203 54l28 279h35q37 -162 131 -234.5t246 -72.5q96 0 142 28.5t46 100.5q0 49 -24.5 79.5t-77.5 55t-170 67.5q-199 72 -283 149t-84 212zM391 1319q0 76 49 115t129 39t129.5 -39t49.5 -115t-49.5 -115t-129.5 -39t-129 39t-49 115z" />
<glyph unicode="&#x1e62;" horiz-adv-x="1388" d="M115 1063q0 197 139 296t442 99q135 0 261 -26.5t212 -67.5l-49 -313h-55q-39 125 -81 198.5t-113.5 113.5t-190.5 40q-270 0 -270 -176q0 -72 32.5 -119t98 -85t217.5 -112l41 -18q190 -92 281 -149.5t144.5 -142.5t53.5 -220q0 -201 -150.5 -303.5t-472.5 -102.5 q-129 0 -285.5 29t-242.5 70l55 360h54q27 -160 80 -248t132.5 -121.5t196.5 -33.5q133 0 207 51t74 147q0 78 -34 129.5t-103.5 94.5t-204.5 102q-172 76 -266.5 134.5t-148.5 147.5t-54 226zM504 -272q0 74 47 113.5t123 39.5t123 -40t47 -113q0 -74 -47 -114t-123 -40 t-123 40t-47 114z" />
<glyph unicode="&#x1e63;" horiz-adv-x="1138" d="M98 717q0 154 115 228.5t348 74.5q119 0 233.5 -23.5t178.5 -54.5l-25 -246h-35q-55 137 -133 208t-225 71q-94 0 -145.5 -25.5t-51.5 -93.5q0 -47 24 -75.5t74 -53.5t167 -72q168 -68 254 -117t126.5 -112.5t40.5 -159.5q0 -154 -117.5 -222.5t-353.5 -68.5 q-125 0 -261 24t-203 54l28 279h35q37 -162 131 -234.5t246 -72.5q96 0 142 28.5t46 100.5q0 49 -24.5 79.5t-77.5 55t-170 67.5q-199 72 -283 149t-84 212zM379 -272q0 74 47 113.5t123 39.5t123 -40t47 -113q0 -74 -47 -114t-123 -40t-123 40t-47 114z" />
<glyph unicode="&#x1e6c;" horiz-adv-x="1482" d="M53 1020v414h1377v-414h-46q-53 143 -88.5 208.5t-104.5 106.5t-194 41h-47v-1274q0 -22 9.5 -30.5t39.5 -14.5l76 -16v-41h-667v41l75 16q31 6 40 14.5t9 30.5v1274h-47q-125 0 -193.5 -41t-104 -106.5t-89.5 -208.5h-45zM571 -272q0 74 47.5 113.5t122.5 39.5 q76 0 123 -40t47 -113q0 -74 -47 -114t-123 -40q-75 0 -122.5 40t-47.5 114z" />
<glyph unicode="&#x1e6d;" horiz-adv-x="913" d="M45 942v53q63 0 94 10.5t62 36.5l364 328h19v-375h264v-53h-264v-688q0 -98 23.5 -138t80.5 -40q45 0 80 18.5t76 63.5l33 -39q-129 -143 -381 -144q-170 0 -244 72t-74 223v672h-133zM266 -272q0 74 47 113.5t123 39.5t123 -40t47 -113q0 -74 -47 -114t-123 -40t-123 40 t-47 114z" />
<glyph unicode="&#x1e6e;" horiz-adv-x="1482" d="M53 1020v414h1377v-414h-46q-53 143 -88.5 208.5t-104.5 106.5t-194 41h-47v-1274q0 -22 9.5 -30.5t39.5 -14.5l76 -16v-41h-667v41l75 16q31 6 40 14.5t9 30.5v1274h-47q-125 0 -193.5 -41t-104 -106.5t-89.5 -208.5h-45zM352 -147h778v-50h-778v50z" />
<glyph unicode="&#x1e6f;" horiz-adv-x="913" d="M45 942v53q63 0 94 10.5t62 36.5l364 328h19v-375h264v-53h-264v-688q0 -98 23.5 -138t80.5 -40q45 0 80 18.5t76 63.5l33 -39q-129 -143 -381 -144q-170 0 -244 72t-74 223v672h-133zM68 -147h778v-50h-778v50z" />
<glyph unicode="&#x1e80;" horiz-adv-x="2347" d="M45 1393v41h672v-41l-80 -9q-29 -4 -29 -32q0 -6 4 -23l312 -811l219 606l-84 211q-10 27 -21.5 36t-36.5 13l-71 9v41h672v-41l-84 -9q-29 -4 -29 -32q0 -6 4 -23l311 -811l297 819q6 16 6 23q0 23 -30 24l-86 9v41h311v-41l-76 -9q-25 -2 -35 -12t-22 -37l-500 -1358 h-65l-426 1059l-390 -1059h-65l-545 1358q-10 27 -21.5 36t-35.5 13zM813 1690q2 57 35 106t80 72q61 -64 161.5 -140.5t118.5 -91.5l78 -57l-10 -23q-102 16 -238.5 54.5t-224.5 79.5z" />
<glyph unicode="&#x1e81;" horiz-adv-x="1892" d="M8 965v30h627v-30l-37 -9q-47 -10 -47 -43q0 -12 10 -32l238 -478l131 308l-103 198q-10 20 -21 29.5t-28 13.5l-49 13v30h623v-30l-54 -13q-47 -10 -47 -39q0 -12 11 -32l237 -478l242 521q2 4 2 12q0 10 -10.5 14t-30.5 8l-53 7v30h235v-30l-53 -9q-25 -4 -35 -10 t-20 -28l-416 -955h-37l-362 690l-302 -690h-36l-496 946q-10 18 -23.5 26.5t-33.5 12.5zM586 1292q2 57 34.5 106.5t79.5 71.5q62 -63 162.5 -140t118.5 -91l78 -57l-10 -23q-102 16 -238.5 54t-224.5 79z" />
<glyph unicode="&#x1e82;" horiz-adv-x="2347" d="M45 1393v41h672v-41l-80 -9q-29 -4 -29 -32q0 -6 4 -23l312 -811l219 606l-84 211q-10 27 -21.5 36t-36.5 13l-71 9v41h672v-41l-84 -9q-29 -4 -29 -32q0 -6 4 -23l311 -811l297 819q6 16 6 23q0 23 -30 24l-86 9v41h311v-41l-76 -9q-25 -2 -35 -12t-22 -37l-500 -1358 h-65l-426 1059l-390 -1059h-65l-545 1358q-10 27 -21.5 36t-35.5 13zM1059 1579l78 57q18 14 118.5 91t161.5 141q47 -23 80 -72t35 -106q-88 -41 -224.5 -79t-238.5 -55z" />
<glyph unicode="&#x1e83;" horiz-adv-x="1892" d="M8 965v30h627v-30l-37 -9q-47 -10 -47 -43q0 -12 10 -32l238 -478l131 308l-103 198q-10 20 -21 29.5t-28 13.5l-49 13v30h623v-30l-54 -13q-47 -10 -47 -39q0 -12 11 -32l237 -478l242 521q2 4 2 12q0 10 -10.5 14t-30.5 8l-53 7v30h235v-30l-53 -9q-25 -4 -35 -10 t-20 -28l-416 -955h-37l-362 690l-302 -690h-36l-496 946q-10 18 -23.5 26.5t-33.5 12.5zM831 1182l78 57q18 14 118.5 91t162.5 140q47 -22 80 -71t35 -107q-88 -41 -224.5 -78.5t-238.5 -54.5z" />
<glyph unicode="&#x1e84;" horiz-adv-x="2347" d="M45 1393v41h672v-41l-80 -9q-29 -4 -29 -32q0 -6 4 -23l312 -811l219 606l-84 211q-10 27 -21.5 36t-36.5 13l-71 9v41h672v-41l-84 -9q-29 -4 -29 -32q0 -6 4 -23l311 -811l297 819q6 16 6 23q0 23 -30 24l-86 9v41h311v-41l-76 -9q-25 -2 -35 -12t-22 -37l-500 -1358 h-65l-426 1059l-390 -1059h-65l-545 1358q-10 27 -21.5 36t-35.5 13zM854 1720q0 63 44 106.5t114 43.5t113.5 -43t43.5 -107q0 -63 -44 -106t-113 -43q-70 0 -114 43t-44 106zM1341 1720q0 63 44.5 106.5t113.5 43.5q70 0 114 -43t44 -107q0 -63 -44 -106t-114 -43 q-69 0 -113.5 43t-44.5 106z" />
<glyph unicode="&#x1e85;" horiz-adv-x="1892" d="M8 965v30h627v-30l-37 -9q-47 -10 -47 -43q0 -12 10 -32l238 -478l131 308l-103 198q-10 20 -21 29.5t-28 13.5l-49 13v30h623v-30l-54 -13q-47 -10 -47 -39q0 -12 11 -32l237 -478l242 521q2 4 2 12q0 10 -10.5 14t-30.5 8l-53 7v30h235v-30l-53 -9q-25 -4 -35 -10 t-20 -28l-416 -955h-37l-362 690l-302 -690h-36l-496 946q-10 18 -23.5 26.5t-33.5 12.5zM565 1323q0 63 44 106.5t114 43.5t114 -43.5t44 -106.5t-44 -106t-114 -43t-114 43t-44 106zM1053 1323q0 63 44 106.5t113 43.5q70 0 114 -43.5t44 -106.5t-44 -106t-114 -43 q-69 0 -113 43t-44 106z" />
<glyph unicode="&#x1e8e;" horiz-adv-x="1474" d="M8 1393v41h666v-41l-82 -9q-29 -2 -29 -24q0 -12 8 -27l328 -618l365 622q4 13 4 15q0 14 -12.5 23t-28.5 11l-97 9v39h340v-41l-63 -7q-33 -2 -45 -13t-29 -38l-391 -671v-562q0 -23 9.5 -31t39.5 -14l76 -16v-41h-668v41l76 16q31 6 40 14.5t9 30.5v549l-377 684 q-14 25 -26 36t-33 13zM702 1716q0 76 49.5 115t129.5 39t129 -39t49 -115t-49 -114.5t-129 -38.5t-129.5 38.5t-49.5 114.5z" />
<glyph unicode="&#x1e8f;" horiz-adv-x="1191" d="M8 965v30h643v-30l-53 -13q-47 -10 -47 -39q0 -12 10 -32l238 -478l223 521q6 12 6 20q0 12 -27 14l-53 7v30h236v-30l-54 -9q-25 -4 -35 -10t-20 -28l-399 -918q-82 -190 -134.5 -279.5t-117 -137.5t-172.5 -75l-111 312q139 6 264 46t216 101l-494 942 q-10 18 -23.5 26.5t-33.5 12.5zM602 1319q0 76 49 115t129 39t129 -39t49 -115t-49 -115t-129 -39t-129 39t-49 115z" />
<glyph unicode="&#x1e92;" horiz-adv-x="1560" d="M119 0v53l844 1319h-318q-123 0 -190.5 -34.5t-105.5 -102.5t-81 -201h-51v400h1213v-54l-846 -1319h411q123 0 190.5 36t105.5 104.5t81 206.5h51v-408h-1304zM610 -272q0 74 47.5 113.5t122.5 39.5q76 0 123 -40t47 -113q0 -74 -47 -114t-123 -40q-75 0 -122.5 40 t-47.5 114z" />
<glyph unicode="&#x1e93;" horiz-adv-x="1155" d="M66 0v41l596 903h-226q-94 0 -144 -19.5t-79 -63.5t-57 -134h-41v268h962v-41l-596 -903h279q94 0 144 20.5t79 66.5t57 138h41v-276h-1015zM408 -272q0 74 47 113.5t123 39.5t123 -40t47 -113q0 -74 -47.5 -114t-122.5 -40q-76 0 -123 40t-47 114z" />
<glyph unicode="&#x1e97;" horiz-adv-x="913" d="M45 942v53q63 0 94 10.5t62 36.5l364 328h19v-375h264v-53h-264v-688q0 -98 23.5 -138t80.5 -40q45 0 80 18.5t76 63.5l33 -39q-129 -143 -381 -144q-170 0 -244 72t-74 223v672h-133zM55 1597q0 63 44 106.5t114 43.5t114 -43t44 -107q0 -63 -44 -106t-114 -43t-114 43 t-44 106zM543 1597q0 63 44 106.5t113 43.5q70 0 114 -43t44 -107q0 -63 -44 -106t-114 -43q-69 0 -113 43t-44 106z" />
<glyph unicode="&#x1e9e;" horiz-adv-x="1611" d="M53 0v41l76 16q31 6 40 14.5t9 30.5v1016q0 184 165 280.5t437 96.5q240 0 377 -52t244 -173v-64q-61 -102 -163.5 -159.5t-260.5 -81.5q281 -61 408.5 -216t127.5 -352q0 -150 -67.5 -243t-172 -133.5t-222.5 -40.5q-217 0 -334 106l26 39q82 -63 191 -64q102 0 139 69 t37 204q0 180 -84 293.5t-266 197.5v47q168 92 235.5 202t67.5 198q-31 98 -87 138t-153 40q-98 0 -147 -35t-64.5 -98.5t-15.5 -169.5v-1147h-543z" />
<glyph unicode="&#x1ea0;" horiz-adv-x="1572" d="M37 0v41l76 8q25 2 35 12.5t22 36.5l567 1358h66l600 -1358q12 -27 22.5 -37t34.5 -12l76 -8v-41h-676v41l88 8q29 4 29 23q0 10 -6 24l-135 299h-476l-122 -299q-6 -14 -7 -24q0 -18 29 -23l88 -8v-41h-311zM385 457h424l-221 489zM453 -272q0 74 47 113.5t123 39.5 t123 -40t47 -113q0 -74 -47.5 -114t-122.5 -40q-76 0 -123 40t-47 114z" />
<glyph unicode="&#x1ea1;" horiz-adv-x="1318" d="M78 227q0 127 74.5 199t218 102.5t381.5 36.5v150q0 115 -45 165t-158 50q-94 0 -175 -25.5t-165 -77.5l-27 39q98 70 236.5 112t310.5 42q231 0 329.5 -91t98.5 -263v-568q0 -23 9.5 -31t39.5 -14l72 -16v-37h-422q-57 0 -80.5 23.5t-23.5 78.5v11q-137 -133 -392 -133 q-133 0 -207.5 60t-74.5 187zM475 256q0 -78 27.5 -112.5t87.5 -34.5q88 -1 162 69v332q-115 -8 -174.5 -36t-81 -79t-21.5 -139zM489 -272q0 74 47.5 113.5t122.5 39.5q76 0 123 -40t47 -113q0 -74 -47 -114t-123 -40q-75 0 -122.5 40t-47.5 114z" />
<glyph unicode="&#x1ea2;" horiz-adv-x="1572" d="M37 0v41l76 8q25 2 35 12.5t22 36.5l567 1358h66l600 -1358q12 -27 22.5 -37t34.5 -12l76 -8v-41h-676v41l88 8q29 4 29 23q0 10 -6 24l-135 299h-476l-122 -299q-6 -14 -7 -24q0 -18 29 -23l88 -8v-41h-311zM385 457h424l-221 489zM580 1894q111 53 235 54 q88 0 141.5 -35t53.5 -109q0 -129 -209 -178l-8 -70h-58l-12 101q45 29 65.5 64.5t20.5 86.5q0 74 -80 74q-41 0 -69.5 -7t-65.5 -22z" />
<glyph unicode="&#x1ea3;" horiz-adv-x="1318" d="M78 227q0 127 74.5 199t218 102.5t381.5 36.5v150q0 115 -45 165t-158 50q-94 0 -175 -25.5t-165 -77.5l-27 39q98 70 236.5 112t310.5 42q231 0 329.5 -91t98.5 -263v-568q0 -23 9.5 -31t39.5 -14l72 -16v-37h-422q-57 0 -80.5 23.5t-23.5 78.5v11q-137 -133 -392 -133 q-133 0 -207.5 60t-74.5 187zM475 256q0 -78 27.5 -112.5t87.5 -34.5q88 -1 162 69v332q-115 -8 -174.5 -36t-81 -79t-21.5 -139zM485 1497q111 53 236 53q88 0 141 -34.5t53 -108.5q0 -129 -208 -178l-9 -70h-57l-12 101q45 29 65.5 64.5t20.5 86.5q0 74 -80 74 q-41 0 -69.5 -7.5t-65.5 -21.5z" />
<glyph unicode="&#x1ea4;" horiz-adv-x="1572" d="M37 0v41l76 8q25 2 35 12.5t22 36.5l567 1358h66l600 -1358q12 -27 22.5 -37t34.5 -12l76 -8v-41h-676v41l88 8q29 4 29 23q0 10 -6 24l-135 299h-476l-122 -299q-6 -14 -7 -24q0 -18 29 -23l88 -8v-41h-311zM385 457h424l-221 489zM446 1587q131 94 267 244h106 q110 -121 266 -244l-22 -31q-180 57 -297 125q-117 -68 -297 -125zM963 1815q125 182 186 307q43 -4 81 -33t54 -74q-178 -160 -299 -221z" />
<glyph unicode="&#x1ea5;" horiz-adv-x="1318" d="M78 227q0 127 74.5 199t218 102.5t381.5 36.5v150q0 115 -45 165t-158 50q-94 0 -175 -25.5t-165 -77.5l-27 39q98 70 236.5 112t310.5 42q231 0 329.5 -91t98.5 -263v-568q0 -23 9.5 -31t39.5 -14l72 -16v-37h-422q-57 0 -80.5 23.5t-23.5 78.5v11q-137 -133 -392 -133 q-133 0 -207.5 60t-74.5 187zM340 1190q131 94 266 244h107q110 -121 266 -244l-23 -31q-180 57 -297 125q-117 -68 -297 -125zM475 256q0 -78 27.5 -112.5t87.5 -34.5q88 -1 162 69v332q-115 -8 -174.5 -36t-81 -79t-21.5 -139zM856 1417q125 182 186 307q43 -4 81 -32.5 t55 -73.5q-178 -160 -299 -221z" />
</font>
</defs>
</svg>
